  0
SECTION
  2
HEADER
  9
$ACADVER
  1
AC1014
  9
$ACADMAINTVER
 70
     9
  9
$DWGCODEPAGE
  3
ANSI_1251
  9
$INSBASE
 10
0.0
 20
0.0
 30
0.0
  9
$EXTMIN
 10
67.11822615368089
 20
129.1716164424684
 30
-0.0000000349181948
  9
$EXTMAX
 10
244.4146736250429
 20
264.3343512394167
 30
0.0000000814935746
  9
$LIMMIN
 10
0.0
 20
0.0
  9
$LIMMAX
 10
420.0
 20
297.0
  9
$ORTHOMODE
 70
     0
  9
$REGENMODE
 70
     1
  9
$FILLMODE
 70
     1
  9
$QTEXTMODE
 70
     0
  9
$MIRRTEXT
 70
     1
  9
$DRAGMODE
 70
     2
  9
$LTSCALE
 40
1.0
  9
$OSMODE
 70
    37
  9
$ATTMODE
 70
     1
  9
$TEXTSIZE
 40
4.0
  9
$TRACEWID
 40
1.0
  9
$TEXTSTYLE
  7
STANDARD
  9
$CLAYER
  8
0
  9
$CELTYPE
  6
BYLAYER
  9
$CECOLOR
 62
   256
  9
$CELTSCALE
 40
1.0
  9
$DELOBJ
 70
     1
  9
$DISPSILH
 70
     0
  9
$DIMSCALE
 40
1.0
  9
$DIMASZ
 40
2.5
  9
$DIMEXO
 40
0.625
  9
$DIMDLI
 40
3.75
  9
$DIMRND
 40
0.0
  9
$DIMDLE
 40
0.0
  9
$DIMEXE
 40
1.25
  9
$DIMTP
 40
0.0
  9
$DIMTM
 40
0.0
  9
$DIMTXT
 40
2.5
  9
$DIMCEN
 40
2.5
  9
$DIMTSZ
 40
0.0
  9
$DIMTOL
 70
     0
  9
$DIMLIM
 70
     0
  9
$DIMTIH
 70
     0
  9
$DIMTOH
 70
     0
  9
$DIMSE1
 70
     0
  9
$DIMSE2
 70
     0
  9
$DIMTAD
 70
     1
  9
$DIMZIN
 70
     8
  9
$DIMBLK
  1

  9
$DIMASO
 70
     1
  9
$DIMSHO
 70
     1
  9
$DIMPOST
  1

  9
$DIMAPOST
  1

  9
$DIMALT
 70
     0
  9
$DIMALTD
 70
     3
  9
$DIMALTF
 40
0.03937007874016
  9
$DIMLFAC
 40
1.0
  9
$DIMTOFL
 70
     1
  9
$DIMTVP
 40
0.0
  9
$DIMTIX
 70
     0
  9
$DIMSOXD
 70
     0
  9
$DIMSAH
 70
     0
  9
$DIMBLK1
  1

  9
$DIMBLK2
  1

  9
$DIMSTYLE
  2
ISO-25
  9
$DIMCLRD
 70
     0
  9
$DIMCLRE
 70
     0
  9
$DIMCLRT
 70
     0
  9
$DIMTFAC
 40
1.0
  9
$DIMGAP
 40
0.625
  9
$DIMJUST
 70
     0
  9
$DIMSD1
 70
     0
  9
$DIMSD2
 70
     0
  9
$DIMTOLJ
 70
     0
  9
$DIMTZIN
 70
     8
  9
$DIMALTZ
 70
     0
  9
$DIMALTTZ
 70
     0
  9
$DIMFIT
 70
     3
  9
$DIMUPT
 70
     0
  9
$DIMUNIT
 70
     2
  9
$DIMDEC
 70
     2
  9
$DIMTDEC
 70
     2
  9
$DIMALTU
 70
     2
  9
$DIMALTTD
 70
     3
  9
$DIMTXSTY
  7
STANDARD
  9
$DIMAUNIT
 70
     0
  9
$LUNITS
 70
     2
  9
$LUPREC
 70
     4
  9
$SKETCHINC
 40
1.0
  9
$FILLETRAD
 40
10.0
  9
$AUNITS
 70
     0
  9
$AUPREC
 70
     0
  9
$MENU
  1
.
  9
$ELEVATION
 40
0.0
  9
$PELEVATION
 40
0.0
  9
$THICKNESS
 40
0.0
  9
$LIMCHECK
 70
     0
  9
$BLIPMODE
 70
     0
  9
$CHAMFERA
 40
10.0
  9
$CHAMFERB
 40
10.0
  9
$CHAMFERC
 40
20.0
  9
$CHAMFERD
 40
0.0
  9
$SKPOLY
 70
     0
  9
$TDCREATE
 40
2452775.457526470
  9
$TDUPDATE
 40
2452775.468058171
  9
$TDINDWG
 40
0.0105322454
  9
$TDUSRTIMER
 40
0.0105322454
  9
$USRTIMER
 70
     1
  9
$ANGBASE
 50
0.0
  9
$ANGDIR
 70
     0
  9
$PDMODE
 70
     0
  9
$PDSIZE
 40
0.0
  9
$PLINEWID
 40
0.0
  9
$COORDS
 70
     1
  9
$SPLFRAME
 70
     0
  9
$SPLINETYPE
 70
     6
  9
$SPLINESEGS
 70
     8
  9
$ATTDIA
 70
     0
  9
$ATTREQ
 70
     1
  9
$HANDLING
 70
 12289
  9
$HANDSEED
  5
32E
  9
$SURFTAB1
 70
     6
  9
$SURFTAB2
 70
     6
  9
$SURFTYPE
 70
     6
  9
$SURFU
 70
     6
  9
$SURFV
 70
     6
  9
$UCSNAME
  2

  9
$UCSORG
 10
0.0
 20
0.0
 30
0.0
  9
$UCSXDIR
 10
1.0
 20
0.0
 30
0.0
  9
$UCSYDIR
 10
0.0
 20
1.0
 30
0.0
  9
$PUCSNAME
  2

  9
$PUCSORG
 10
0.0
 20
0.0
 30
0.0
  9
$PUCSXDIR
 10
1.0
 20
0.0
 30
0.0
  9
$PUCSYDIR
 10
0.0
 20
1.0
 30
0.0
  9
$USERI1
 70
     0
  9
$USERI2
 70
     0
  9
$USERI3
 70
     0
  9
$USERI4
 70
     0
  9
$USERI5
 70
     0
  9
$USERR1
 40
0.0
  9
$USERR2
 40
0.0
  9
$USERR3
 40
0.0
  9
$USERR4
 40
0.0
  9
$USERR5
 40
0.0
  9
$WORLDVIEW
 70
     1
  9
$SHADEDGE
 70
     3
  9
$SHADEDIF
 70
    70
  9
$TILEMODE
 70
     1
  9
$MAXACTVP
 70
    64
  9
$PINSBASE
 10
0.0
 20
0.0
 30
0.0
  9
$PLIMCHECK
 70
     0
  9
$PEXTMIN
 10
1.000000000000000E+20
 20
1.000000000000000E+20
 30
1.000000000000000E+20
  9
$PEXTMAX
 10
-1.000000000000000E+20
 20
-1.000000000000000E+20
 30
-1.000000000000000E+20
  9
$PLIMMIN
 10
0.0
 20
0.0
  9
$PLIMMAX
 10
420.0
 20
297.0
  9
$UNITMODE
 70
     0
  9
$VISRETAIN
 70
     1
  9
$PLINEGEN
 70
     0
  9
$PSLTSCALE
 70
     1
  9
$TREEDEPTH
 70
  3020
  9
$PICKSTYLE
 70
     1
  9
$CMLSTYLE
  2
STANDARD
  9
$CMLJUST
 70
     0
  9
$CMLSCALE
 40
20.0
  9
$PROXYGRAPHICS
 70
     1
  9
$MEASUREMENT
 70
     1
  0
ENDSEC
  0
SECTION
  2
CLASSES
  0
CLASS
  1
ACDBDICTIONARYWDFLT
  2
AcDbDictionaryWithDefault
  3
AutoCAD 2000
 90
        0
280
     0
281
     0
  0
CLASS
  1
ACDBPLACEHOLDER
  2
AcDbPlaceHolder
  3
AutoCAD 2000
 90
        0
280
     0
281
     0
  0
CLASS
  1
LAYOUT
  2
AcDbLayout
  3
AutoCAD 2000
 90
        0
280
     0
281
     0
  0
CLASS
  1
DICTIONARYVAR
  2
AcDbDictionaryVar
  3
AutoCAD 2000
 90
        0
280
     0
281
     0
  0
CLASS
  1
LONG_TRANSACTION
  2
AcDbLongTransaction
  3
AutoCAD 2000
 90
        0
280
     0
281
     0
  0
CLASS
  1
LWPOLYLINE
  2
AcDbPolyline
  3
AutoCAD 2000
 90
        0
280
     0
281
     1
  0
CLASS
  1
HATCH
  2
AcDbHatch
  3
AutoCAD 2000
 90
        0
280
     0
281
     1
  0
CLASS
  1
XRECORD
  2
AcDbXrecord
  3
AutoCAD 2000
 90
        0
280
     0
281
     0
  0
ENDSEC
  0
SECTION
  2
TABLES
  0
TABLE
  2
VPORT
  5
8
330
0
100
AcDbSymbolTable
 70
     4
  0
VPORT
  5
2FB
330
8
100
AcDbSymbolTableRecord
100
AcDbViewportTableRecord
  2
*ACTIVE
 70
     0
 10
0.0
 20
0.0
 11
1.0
 21
1.0
 12
155.7664498893619
 22
196.7529838409426
 13
0.0
 23
0.0
 14
10.0
 24
10.0
 15
10.0
 25
10.0
 16
0.0
 26
0.0
 36
1.0
 17
0.0
 27
0.0
 37
0.0
 40
140.0796986840557
 41
1.2734375
 42
50.0
 43
0.0
 44
0.0
 50
0.0
 51
0.0
 71
     0
 72
   100
 73
     1
 74
     3
 75
     0
 76
     0
 77
     0
 78
     0
  0
ENDTAB
  0
TABLE
  2
LTYPE
  5
5
330
0
100
AcDbSymbolTable
 70
     2
  0
LTYPE
  5
14
330
5
100
AcDbSymbolTableRecord
100
AcDbLinetypeTableRecord
  2
BYBLOCK
 70
     0
  3

 72
    65
 73
     0
 40
0.0
  0
LTYPE
  5
15
330
5
100
AcDbSymbolTableRecord
100
AcDbLinetypeTableRecord
  2
BYLAYER
 70
     0
  3

 72
    65
 73
     0
 40
0.0
  0
LTYPE
  5
16
330
5
100
AcDbSymbolTableRecord
100
AcDbLinetypeTableRecord
  2
CONTINUOUS
 70
     0
  3
Solid line
 72
    65
 73
     0
 40
0.0
  0
LTYPE
  5
90
330
5
100
AcDbSymbolTableRecord
100
AcDbLinetypeTableRecord
  2
CENTER
 70
     0
  3
Center ____ _ ____ _ ____ _ ____ _ ____ _ ____
 72
    65
 73
     4
 40
50.8
 49
31.75
 74
     0
 49
-6.349999999999997
 74
     0
 49
6.349999999999997
 74
     0
 49
-6.349999999999997
 74
     0
  0
ENDTAB
  0
TABLE
  2
LAYER
  5
2
330
0
100
AcDbSymbolTable
 70
     6
  0
LAYER
  5
10
330
2
100
AcDbSymbolTableRecord
100
AcDbLayerTableRecord
  2
0
 70
     0
 62
     7
  6
CONTINUOUS
  0
LAYER
  5
91
330
2
100
AcDbSymbolTableRecord
100
AcDbLayerTableRecord
  2
DEFPOINTS
 70
     0
 62
     7
  6
CONTINUOUS
  0
LAYER
  5
92
330
2
100
AcDbSymbolTableRecord
100
AcDbLayerTableRecord
  2
CENTER
 70
     0
 62
     5
  6
CENTER
  0
LAYER
  5
93
330
2
100
AcDbSymbolTableRecord
100
AcDbLayerTableRecord
  2
FORM
 70
     0
 62
     1
  6
CONTINUOUS
  0
LAYER
  5
94
330
2
100
AcDbSymbolTableRecord
100
AcDbLayerTableRecord
  2
DIMENSION
 70
     0
 62
     3
  6
CONTINUOUS
  0
LAYER
  5
95
330
2
100
AcDbSymbolTableRecord
100
AcDbLayerTableRecord
  2
T
 70
     0
 62
     2
  6
CONTINUOUS
  0
ENDTAB
  0
TABLE
  2
STYLE
  5
3
330
0
100
AcDbSymbolTable
 70
     1
  0
STYLE
  5
11
330
3
100
AcDbSymbolTableRecord
100
AcDbTextStyleTableRecord
  2
STANDARD
 70
     0
 40
0.0
 41
1.0
 50
0.0
 71
     0
 42
4.0
  3
simplex.shx
  4

  0
ENDTAB
  0
TABLE
  2
VIEW
  5
6
330
0
100
AcDbSymbolTable
 70
     0
  0
ENDTAB
  0
TABLE
  2
UCS
  5
7
330
0
100
AcDbSymbolTable
 70
     0
  0
ENDTAB
  0
TABLE
  2
APPID
  5
9
330
0
100
AcDbSymbolTable
 70
     1
  0
APPID
  5
12
330
9
100
AcDbSymbolTableRecord
100
AcDbRegAppTableRecord
  2
ACAD
 70
     0
  0
ENDTAB
  0
TABLE
  2
DIMSTYLE
  5
A
330
0
100
AcDbSymbolTable
 70
     2
  0
DIMSTYLE
105
27
330
A
100
AcDbSymbolTableRecord
100
AcDbDimStyleTableRecord
  2
ISO-25
 70
     0
  3

  4

  5

  6

  7

 40
1.0
 41
2.5
 42
0.625
 43
3.75
 44
1.25
 45
0.0
 46
0.0
 47
0.0
 48
0.0
140
2.5
141
2.5
142
0.0
143
0.03937007874016
144
1.0
145
0.0
146
1.0
147
0.625
 71
     0
 72
     0
 73
     0
 74
     0
 75
     0
 76
     0
 77
     1
 78
     8
170
     0
171
     3
172
     1
173
     0
174
     0
175
     0
176
     0
177
     0
178
     0
270
     2
271
     2
272
     2
273
     2
274
     3
340
11
275
     0
280
     0
281
     0
282
     0
283
     0
284
     8
285
     0
286
     0
287
     3
288
     0
  0
DIMSTYLE
105
96
102
{ACAD_REACTORS
330
99
330
A4
330
9A
330
A8
330
A5
330
98
330
110
330
E6
330
D2
330
DD
330
D4
330
158
330
159
330
15A
330
164
330
165
330
168
330
194
102
}
330
A
100
AcDbSymbolTableRecord
100
AcDbDimStyleTableRecord
  2
STANDARD
 70
     0
  3

  4

  5

  6

  7

 40
1.0
 41
0.18
 42
0.0625
 43
0.38
 44
0.18
 45
0.0
 46
0.0
 47
0.0
 48
0.0
140
0.18
141
0.09
142
0.0
143
25.4
144
1.0
145
0.0
146
1.0
147
0.09
 71
     0
 72
     0
 73
     1
 74
     1
 75
     0
 76
     0
 77
     0
 78
     0
170
     0
171
     2
172
     0
173
     0
174
     0
175
     0
176
     0
177
     0
178
     0
270
     2
271
     4
272
     4
273
     2
274
     2
340
11
275
     0
280
     0
281
     0
282
     0
283
     1
284
     0
285
     0
286
     0
287
     3
288
     0
  0
ENDTAB
  0
TABLE
  2
BLOCK_RECORD
  5
1
330
0
100
AcDbSymbolTable
 70
    18
  0
BLOCK_RECORD
  5
1F
102
{ACAD_XDICTIONARY
360
31F
102
}
330
1
100
AcDbSymbolTableRecord
100
AcDbBlockTableRecord
  2
*MODEL_SPACE
  0
BLOCK_RECORD
  5
1B
102
{ACAD_XDICTIONARY
360
31D
102
}
330
1
100
AcDbSymbolTableRecord
100
AcDbBlockTableRecord
  2
*PAPER_SPACE
  0
BLOCK_RECORD
  5
2B
330
1
100
AcDbSymbolTableRecord
100
AcDbBlockTableRecord
  2
_OBLIQUE
  0
BLOCK_RECORD
  5
2F
330
1
100
AcDbSymbolTableRecord
100
AcDbBlockTableRecord
  2
*D2
  0
BLOCK_RECORD
  5
3D
330
1
100
AcDbSymbolTableRecord
100
AcDbBlockTableRecord
  2
*D3
  0
BLOCK_RECORD
  5
4B
330
1
100
AcDbSymbolTableRecord
100
AcDbBlockTableRecord
  2
*D4
  0
BLOCK_RECORD
  5
57
330
1
100
AcDbSymbolTableRecord
100
AcDbBlockTableRecord
  2
*D5
  0
BLOCK_RECORD
  5
63
330
1
100
AcDbSymbolTableRecord
100
AcDbBlockTableRecord
  2
*D6
  0
BLOCK_RECORD
  5
71
330
1
100
AcDbSymbolTableRecord
100
AcDbBlockTableRecord
  2
*D7
  0
BLOCK_RECORD
  5
7F
330
1
100
AcDbSymbolTableRecord
100
AcDbBlockTableRecord
  2
_NONE
  0
BLOCK_RECORD
  5
82
330
1
100
AcDbSymbolTableRecord
100
AcDbBlockTableRecord
  2
*D9
  0
BLOCK_RECORD
  5
215
330
1
100
AcDbSymbolTableRecord
100
AcDbBlockTableRecord
  2
*D11
  0
BLOCK_RECORD
  5
223
330
1
100
AcDbSymbolTableRecord
100
AcDbBlockTableRecord
  2
*D12
  0
BLOCK_RECORD
  5
231
330
1
100
AcDbSymbolTableRecord
100
AcDbBlockTableRecord
  2
*D13
  0
BLOCK_RECORD
  5
23D
330
1
100
AcDbSymbolTableRecord
100
AcDbBlockTableRecord
  2
*D14
  0
BLOCK_RECORD
  5
24B
330
1
100
AcDbSymbolTableRecord
100
AcDbBlockTableRecord
  2
*D15
  0
BLOCK_RECORD
  5
259
330
1
100
AcDbSymbolTableRecord
100
AcDbBlockTableRecord
  2
*D16
  0
BLOCK_RECORD
  5
265
330
1
100
AcDbSymbolTableRecord
100
AcDbBlockTableRecord
  2
*D17
  0
ENDTAB
  0
ENDSEC
  0
SECTION
  2
BLOCKS
  0
BLOCK
  5
20
330
1F
100
AcDbEntity
  8
0
100
AcDbBlockBegin
  2
*MODEL_SPACE
 70
     0
 10
0.0
 20
0.0
 30
0.0
  3
*MODEL_SPACE
  1

  0
ENDBLK
  5
21
330
1F
100
AcDbEntity
  8
0
100
AcDbBlockEnd
  0
BLOCK
  5
1C
330
1B
100
AcDbEntity
 67
     1
  8
0
100
AcDbBlockBegin
  2
*PAPER_SPACE
 70
     0
 10
0.0
 20
0.0
 30
0.0
  3
*PAPER_SPACE
  1

  0
ENDBLK
  5
1D
330
1B
100
AcDbEntity
 67
     1
  8
0
100
AcDbBlockEnd
  0
BLOCK
  5
2D
330
2B
100
AcDbEntity
  8
0
100
AcDbBlockBegin
  2
_OBLIQUE
 70
     0
 10
0.0
 20
0.0
 30
0.0
  3
_OBLIQUE
  1

  0
LINE
  5
2C
330
2B
100
AcDbEntity
  8
DIMENSION
 62
     0
100
AcDbLine
 10
-0.5
 20
-0.5
 30
0.0
 11
0.5
 21
0.5
 31
0.0
  0
ENDBLK
  5
2E
330
2B
100
AcDbEntity
  8
0
100
AcDbBlockEnd
  0
BLOCK
  5
3B
330
2F
100
AcDbEntity
  8
0
100
AcDbBlockBegin
  2
*D2
 70
     1
 10
0.0
 20
0.0
 30
0.0
  3
*D2
  1

  0
LINE
  5
30
330
2F
100
AcDbEntity
  8
DIMENSION
 62
     0
100
AcDbLine
 10
170.396921997612
 20
39.15312269640069
 30
0.0
 11
170.396921997612
 21
43.20484567507786
 31
0.0
  0
LINE
  5
31
330
2F
100
AcDbEntity
  8
DIMENSION
 62
     0
100
AcDbLine
 10
175.396921997612
 20
39.15312269640069
 30
0.0
 11
175.396921997612
 21
43.20484567507786
 31
0.0
  0
LINE
  5
32
330
2F
100
AcDbEntity
  8
DIMENSION
 62
     0
100
AcDbLine
 10
177.896921997612
 20
41.20484567507786
 30
0.0
 11
180.396921997612
 21
41.20484567507786
 31
0.0
  0
LINE
  5
33
330
2F
100
AcDbEntity
  8
DIMENSION
 62
     0
100
AcDbLine
 10
167.896921997612
 20
41.20484567507786
 30
0.0
 11
144.7302553309453
 21
41.20484567507786
 31
0.0
  0
LINE
  5
34
330
2F
100
AcDbEntity
  8
DIMENSION
 62
     0
100
AcDbLine
 10
175.396921997612
 20
41.20484567507786
 30
0.0
 11
170.396921997612
 21
41.20484567507786
 31
0.0
  0
SOLID
  5
35
330
2F
100
AcDbEntity
  8
DIMENSION
 62
     0
100
AcDbTrace
 10
177.896921997612
 20
41.62151234174453
 30
0.0
 11
177.896921997612
 21
40.7881790084112
 31
0.0
 12
175.396921997612
 22
41.20484567507786
 32
0.0
 13
175.396921997612
 23
41.20484567507786
 33
0.0
  0
SOLID
  5
36
330
2F
100
AcDbEntity
  8
DIMENSION
 62
     0
100
AcDbTrace
 10
167.896921997612
 20
41.62151234174453
 30
0.0
 11
167.896921997612
 21
40.7881790084112
 31
0.0
 12
170.396921997612
 22
41.20484567507786
 32
0.0
 13
170.396921997612
 23
41.20484567507786
 33
0.0
  0
MTEXT
  5
37
330
2F
100
AcDbEntity
  8
DIMENSION
 62
     5
100
AcDbMText
 10
155.0635886642787
 20
44.87151234174453
 30
0.0
 40
4.0
 41
0.0
 71
     5
 72
     1
  1
\A1;M5-6g
1001
ACAD
1000
MTEXTBEGIN
1070
    73
1070
     1
1070
    44
1040
1.0
1070
    74
1070
     0
1000
MTEXTEND
  0
POINT
  5
38
330
2F
100
AcDbEntity
  8
DEFPOINTS
 62
     0
100
AcDbPoint
 10
170.396921997612
 20
39.15312269640069
 30
0.0
  0
POINT
  5
39
330
2F
100
AcDbEntity
  8
DEFPOINTS
 62
     0
100
AcDbPoint
 10
175.396921997612
 20
39.15312269640069
 30
0.0
  0
POINT
  5
3A
330
2F
100
AcDbEntity
  8
DEFPOINTS
 62
     0
100
AcDbPoint
 10
175.396921997612
 20
41.20484567507786
 30
0.0
  0
ENDBLK
  5
3C
330
2F
100
AcDbEntity
  8
0
100
AcDbBlockEnd
  0
BLOCK
  5
49
330
3D
100
AcDbEntity
  8
0
100
AcDbBlockBegin
  2
*D3
 70
     1
 10
0.0
 20
0.0
 30
0.0
  3
*D3
  1

  0
LINE
  5
3E
330
3D
100
AcDbEntity
  8
DIMENSION
 62
     0
100
AcDbLine
 10
170.3969219976119
 20
63.52527422840875
 30
0.0
 11
170.3969219976119
 21
83.13903500770516
 31
0.0
  0
LINE
  5
3F
330
3D
100
AcDbEntity
  8
DIMENSION
 62
     0
100
AcDbLine
 10
175.3969219976118
 20
63.52527422840875
 30
0.0
 11
175.3969219976118
 21
83.13903500770516
 31
0.0
  0
LINE
  5
40
330
3D
100
AcDbEntity
  8
DIMENSION
 62
     0
100
AcDbLine
 10
167.8969219976119
 20
81.13903500770517
 30
0.0
 11
165.3969219976119
 21
81.13903500770517
 31
0.0
  0
LINE
  5
41
330
3D
100
AcDbEntity
  8
DIMENSION
 62
     0
100
AcDbLine
 10
177.8969219976118
 20
81.13903500770517
 30
0.0
 11
201.0635886642784
 21
81.13903500770517
 31
0.0
  0
LINE
  5
42
330
3D
100
AcDbEntity
  8
DIMENSION
 62
     0
100
AcDbLine
 10
170.3969219976119
 20
81.13903500770517
 30
0.0
 11
175.3969219976118
 21
81.13903500770517
 31
0.0
  0
SOLID
  5
43
330
3D
100
AcDbEntity
  8
DIMENSION
 62
     0
100
AcDbTrace
 10
167.8969219976119
 20
81.55570167437183
 30
0.0
 11
167.8969219976119
 21
80.72236834103849
 31
0.0
 12
170.3969219976119
 22
81.13903500770517
 32
0.0
 13
170.3969219976119
 23
81.13903500770517
 33
0.0
  0
SOLID
  5
44
330
3D
100
AcDbEntity
  8
DIMENSION
 62
     0
100
AcDbTrace
 10
177.8969219976118
 20
81.55570167437183
 30
0.0
 11
177.8969219976118
 21
80.72236834103849
 31
0.0
 12
175.3969219976118
 22
81.13903500770517
 32
0.0
 13
175.3969219976118
 23
81.13903500770517
 33
0.0
  0
MTEXT
  5
45
330
3D
100
AcDbEntity
  8
DIMENSION
 62
     5
100
AcDbMText
 10
190.7302553309451
 20
84.13903500770516
 30
0.0
 40
4.0
 41
0.0
 71
     5
 72
     1
  1
\A1;M5-6H
1001
ACAD
1000
MTEXTBEGIN
1070
    73
1070
     1
1070
    44
1040
1.0
1070
    74
1070
     0
1000
MTEXTEND
  0
POINT
  5
46
330
3D
100
AcDbEntity
  8
DEFPOINTS
 62
     0
100
AcDbPoint
 10
170.3969219976119
 20
63.52527422840875
 30
0.0
  0
POINT
  5
47
330
3D
100
AcDbEntity
  8
DEFPOINTS
 62
     0
100
AcDbPoint
 10
175.3969219976118
 20
63.52527422840875
 30
0.0
  0
POINT
  5
48
330
3D
100
AcDbEntity
  8
DEFPOINTS
 62
     0
100
AcDbPoint
 10
175.3969219976118
 20
81.13903500770517
 30
0.0
  0
ENDBLK
  5
4A
330
3D
100
AcDbEntity
  8
0
100
AcDbBlockEnd
  0
BLOCK
  5
55
330
4B
100
AcDbEntity
  8
0
100
AcDbBlockBegin
  2
*D4
 70
     1
 10
0.0
 20
0.0
 30
0.0
  3
*D4
  1

  0
LINE
  5
4C
330
4B
100
AcDbEntity
  8
DIMENSION
 62
     0
100
AcDbLine
 10
174.8969219976117
 20
39.65312269640069
 30
0.0
 11
186.4244336109243
 21
39.65312269640068
 31
0.0
  0
LINE
  5
4D
330
4B
100
AcDbEntity
  8
DIMENSION
 62
     0
100
AcDbLine
 10
175.396921997612
 20
16.65312269640071
 30
0.0
 11
186.4244336109243
 21
16.6531226964007
 31
0.0
  0
LINE
  5
4E
330
4B
100
AcDbEntity
  8
DIMENSION
 62
     0
100
AcDbLine
 10
184.4244336109243
 20
37.15312269640068
 30
0.0
 11
184.4244336109243
 21
19.1531226964007
 31
0.0
  0
SOLID
  5
4F
330
4B
100
AcDbEntity
  8
DIMENSION
 62
     0
100
AcDbTrace
 10
184.0077669442577
 20
37.15312269640068
 30
0.0
 11
184.841100277591
 21
37.15312269640068
 31
0.0
 12
184.4244336109243
 22
39.65312269640068
 32
0.0
 13
184.4244336109243
 23
39.65312269640068
 33
0.0
  0
SOLID
  5
50
330
4B
100
AcDbEntity
  8
DIMENSION
 62
     0
100
AcDbTrace
 10
184.0077669442577
 20
19.1531226964007
 30
0.0
 11
184.841100277591
 21
19.1531226964007
 31
0.0
 12
184.4244336109243
 22
16.6531226964007
 32
0.0
 13
184.4244336109243
 23
16.6531226964007
 33
0.0
  0
MTEXT
  5
51
330
4B
100
AcDbEntity
  8
DIMENSION
 62
     5
100
AcDbMText
 10
181.4244336109243
 20
29.80598628776714
 30
0.0
 40
4.0
 41
0.0
 71
     5
 72
     1
  1
\A1;23
 11
0.0000000000000001
 21
1.0
 31
0.0
1001
ACAD
1000
MTEXTBEGIN
1070
    73
1070
     1
1070
    44
1040
1.0
1070
    74
1070
     0
1000
MTEXTEND
  0
POINT
  5
52
330
4B
100
AcDbEntity
  8
DEFPOINTS
 62
     0
100
AcDbPoint
 10
174.8969219976117
 20
39.65312269640069
 30
0.0
  0
POINT
  5
53
330
4B
100
AcDbEntity
  8
DEFPOINTS
 62
     0
100
AcDbPoint
 10
175.396921997612
 20
16.65312269640071
 30
0.0
  0
POINT
  5
54
330
4B
100
AcDbEntity
  8
DEFPOINTS
 62
     0
100
AcDbPoint
 10
184.4244336109243
 20
16.6531226964007
 30
0.0
  0
ENDBLK
  5
56
330
4B
100
AcDbEntity
  8
0
100
AcDbBlockEnd
  0
BLOCK
  5
61
330
57
100
AcDbEntity
  8
0
100
AcDbBlockBegin
  2
*D5
 70
     1
 10
0.0
 20
0.0
 30
0.0
  3
*D5
  1

  0
LINE
  5
58
330
57
100
AcDbEntity
  8
DIMENSION
 62
     0
100
AcDbLine
 10
175.396921997612
 20
16.65312269640071
 30
0.0
 11
164.2645017062557
 21
16.65312269640071
 31
0.0
  0
LINE
  5
59
330
57
100
AcDbEntity
  8
DIMENSION
 62
     0
100
AcDbLine
 10
175.396921997612
 20
36.15312269640071
 30
0.0
 11
164.2645017062557
 21
36.15312269640071
 31
0.0
  0
LINE
  5
5A
330
57
100
AcDbEntity
  8
DIMENSION
 62
     0
100
AcDbLine
 10
166.2645017062557
 20
19.15312269640071
 30
0.0
 11
166.2645017062557
 21
33.65312269640071
 31
0.0
  0
SOLID
  5
5B
330
57
100
AcDbEntity
  8
DIMENSION
 62
     0
100
AcDbTrace
 10
165.8478350395891
 20
19.15312269640071
 30
0.0
 11
166.6811683729224
 21
19.15312269640071
 31
0.0
 12
166.2645017062557
 22
16.65312269640071
 32
0.0
 13
166.2645017062557
 23
16.65312269640071
 33
0.0
  0
SOLID
  5
5C
330
57
100
AcDbEntity
  8
DIMENSION
 62
     0
100
AcDbTrace
 10
165.8478350395891
 20
33.65312269640071
 30
0.0
 11
166.6811683729224
 21
33.65312269640071
 31
0.0
 12
166.2645017062557
 22
36.15312269640071
 32
0.0
 13
166.2645017062557
 23
36.15312269640071
 33
0.0
  0
MTEXT
  5
5D
330
57
100
AcDbEntity
  8
DIMENSION
 62
     5
100
AcDbMText
 10
163.2645017062557
 20
27.30002987264719
 30
0.0
 40
4.0
 41
0.0
 71
     5
 72
     1
  1
\A1;19.5
 11
0.0000000000000001
 21
1.0
 31
0.0
1001
ACAD
1000
MTEXTBEGIN
1070
    73
1070
     1
1070
    44
1040
1.0
1070
    74
1070
     0
1000
MTEXTEND
  0
POINT
  5
5E
330
57
100
AcDbEntity
  8
DEFPOINTS
 62
     0
100
AcDbPoint
 10
175.396921997612
 20
16.65312269640071
 30
0.0
  0
POINT
  5
5F
330
57
100
AcDbEntity
  8
DEFPOINTS
 62
     0
100
AcDbPoint
 10
175.396921997612
 20
36.15312269640071
 30
0.0
  0
POINT
  5
60
330
57
100
AcDbEntity
  8
DEFPOINTS
 62
     0
100
AcDbPoint
 10
166.2645017062557
 20
36.15312269640071
 30
0.0
  0
ENDBLK
  5
62
330
57
100
AcDbEntity
  8
0
100
AcDbBlockEnd
  0
BLOCK
  5
6F
330
63
100
AcDbEntity
  8
0
100
AcDbBlockBegin
  2
*D6
 70
     1
 10
0.0
 20
0.0
 30
0.0
  3
*D6
  1

  0
LINE
  5
64
330
63
100
AcDbEntity
  8
DIMENSION
 62
     0
100
AcDbLine
 10
170.396921997612
 20
16.65312269640071
 30
0.0
 11
167.2092003768004
 21
16.65312269640071
 31
0.0
  0
LINE
  5
65
330
63
100
AcDbEntity
  8
DIMENSION
 62
     0
100
AcDbLine
 10
170.396921997612
 20
18.1531226964007
 30
0.0
 11
167.2092003768004
 21
18.15312269640071
 31
0.0
  0
LINE
  5
66
330
63
100
AcDbEntity
  8
DIMENSION
 62
     0
100
AcDbLine
 10
169.2092003768004
 20
20.6531226964007
 30
0.0
 11
169.2092003768004
 21
23.1531226964007
 31
0.0
  0
LINE
  5
67
330
63
100
AcDbEntity
  8
DIMENSION
 62
     0
100
AcDbLine
 10
169.2092003768004
 20
14.15312269640071
 30
0.0
 11
169.2092003768004
 21
2.986456029734046
 31
0.0
  0
LINE
  5
68
330
63
100
AcDbEntity
  8
DIMENSION
 62
     0
100
AcDbLine
 10
169.2092003768004
 20
18.1531226964007
 30
0.0
 11
169.2092003768004
 21
16.65312269640071
 31
0.0
  0
SOLID
  5
69
330
63
100
AcDbEntity
  8
DIMENSION
 62
     0
100
AcDbTrace
 10
168.7925337101338
 20
20.6531226964007
 30
0.0
 11
169.6258670434671
 21
20.6531226964007
 31
0.0
 12
169.2092003768004
 22
18.1531226964007
 32
0.0
 13
169.2092003768004
 23
18.1531226964007
 33
0.0
  0
SOLID
  5
6A
330
63
100
AcDbEntity
  8
DIMENSION
 62
     0
100
AcDbTrace
 10
168.7925337101338
 20
14.15312269640071
 30
0.0
 11
169.6258670434671
 21
14.15312269640071
 31
0.0
 12
169.2092003768004
 22
16.65312269640071
 32
0.0
 13
169.2092003768004
 23
16.65312269640071
 33
0.0
  0
MTEXT
  5
6B
330
63
100
AcDbEntity
  8
DIMENSION
 62
     5
100
AcDbMText
 10
166.2092003768004
 20
7.319789363067408
 30
0.0
 40
4.0
 41
0.0
 71
     5
 72
     1
  1
\A1;1.5
 11
0.0000000000000001
 21
1.0
 31
0.0
1001
ACAD
1000
MTEXTBEGIN
1070
    73
1070
     1
1070
    44
1040
1.0
1070
    74
1070
     0
1000
MTEXTEND
  0
POINT
  5
6C
330
63
100
AcDbEntity
  8
DEFPOINTS
 62
     0
100
AcDbPoint
 10
170.396921997612
 20
16.65312269640071
 30
0.0
  0
POINT
  5
6D
330
63
100
AcDbEntity
  8
DEFPOINTS
 62
     0
100
AcDbPoint
 10
170.396921997612
 20
18.1531226964007
 30
0.0
  0
POINT
  5
6E
330
63
100
AcDbEntity
  8
DEFPOINTS
 62
     0
100
AcDbPoint
 10
169.2092003768004
 20
18.1531226964007
 30
0.0
  0
ENDBLK
  5
70
330
63
100
AcDbEntity
  8
0
100
AcDbBlockEnd
  0
BLOCK
  5
7D
330
71
100
AcDbEntity
  8
0
100
AcDbBlockBegin
  2
*D7
 70
     1
 10
0.0
 20
0.0
 30
0.0
  3
*D7
  1

  0
LINE
  5
72
330
71
100
AcDbEntity
  8
DIMENSION
 62
     0
100
AcDbLine
 10
175.396921997612
 20
18.6531226964007
 30
0.0
 11
181.3905960020338
 21
18.6531226964007
 31
0.0
  0
LINE
  5
73
330
71
100
AcDbEntity
  8
DIMENSION
 62
     0
100
AcDbLine
 10
175.396921997612
 20
18.1531226964007
 30
0.0
 11
181.3905960020338
 21
18.1531226964007
 31
0.0
  0
LINE
  5
74
330
71
100
AcDbEntity
  8
DIMENSION
 62
     0
100
AcDbLine
 10
179.3905960020338
 20
18.6531226964007
 30
0.0
 11
179.3905960020338
 21
21.15312269640071
 31
0.0
  0
LINE
  5
75
330
71
100
AcDbEntity
  8
DIMENSION
 62
     0
100
AcDbLine
 10
179.3905960020338
 20
18.1531226964007
 30
0.0
 11
179.3905960020338
 21
3.819789363067372
 31
0.0
  0
LINE
  5
76
330
71
100
AcDbEntity
  8
DIMENSION
 62
     0
100
AcDbLine
 10
179.3905960020338
 20
18.6531226964007
 30
0.0
 11
179.3905960020338
 21
18.1531226964007
 31
0.0
  0
INSERT
  5
77
330
71
100
AcDbEntity
  8
DIMENSION
 62
     0
100
AcDbBlockReference
  2
_OBLIQUE
 10
179.3905960020338
 20
18.6531226964007
 30
0.0
 41
2.5
 42
2.5
 43
2.5
 50
270.0
  0
INSERT
  5
78
330
71
100
AcDbEntity
  8
DIMENSION
 62
     0
100
AcDbBlockReference
  2
_OBLIQUE
 10
179.3905960020338
 20
18.1531226964007
 30
0.0
 41
2.5
 42
2.5
 43
2.5
 50
90.0
  0
MTEXT
  5
79
330
71
100
AcDbEntity
  8
DIMENSION
 62
     5
100
AcDbMText
 10
176.3905960020338
 20
8.486456029734068
 30
0.0
 40
4.0
 41
0.0
 71
     5
 72
     1
  1
\A1;0.5
 11
0.0000000000000001
 21
1.0
 31
0.0
1001
ACAD
1000
MTEXTBEGIN
1070
    73
1070
     1
1070
    44
1040
1.0
1070
    74
1070
     0
1000
MTEXTEND
  0
POINT
  5
7A
330
71
100
AcDbEntity
  8
DEFPOINTS
 62
     0
100
AcDbPoint
 10
175.396921997612
 20
18.6531226964007
 30
0.0
  0
POINT
  5
7B
330
71
100
AcDbEntity
  8
DEFPOINTS
 62
     0
100
AcDbPoint
 10
175.396921997612
 20
18.1531226964007
 30
0.0
  0
POINT
  5
7C
330
71
100
AcDbEntity
  8
DEFPOINTS
 62
     0
100
AcDbPoint
 10
179.3905960020338
 20
18.1531226964007
 30
0.0
  0
ENDBLK
  5
7E
330
71
100
AcDbEntity
  8
0
100
AcDbBlockEnd
  0
BLOCK
  5
80
330
7F
100
AcDbEntity
  8
0
100
AcDbBlockBegin
  2
_NONE
 70
     0
 10
0.0
 20
0.0
 30
0.0
  3
_NONE
  1

  0
ENDBLK
  5
81
330
7F
100
AcDbEntity
  8
0
100
AcDbBlockEnd
  0
BLOCK
  5
8E
330
82
100
AcDbEntity
  8
0
100
AcDbBlockBegin
  2
*D9
 70
     1
 10
0.0
 20
0.0
 30
0.0
  3
*D9
  1

  0
LINE
  5
83
330
82
100
AcDbEntity
  8
DIMENSION
 62
     0
100
AcDbLine
 10
252.9852077778967
 20
60.02527422840874
 30
0.0
 11
247.4785807300518
 21
60.02527422840874
 31
0.0
  0
LINE
  5
84
330
82
100
AcDbEntity
  8
DIMENSION
 62
     0
100
AcDbLine
 10
252.9852077778967
 20
42.52527422840864
 30
0.0
 11
247.4785807300518
 21
42.52527422840864
 31
0.0
  0
LINE
  5
85
330
82
100
AcDbEntity
  8
DIMENSION
 62
     0
100
AcDbLine
 10
249.4785807300518
 20
62.52527422840874
 30
0.0
 11
249.4785807300518
 21
65.02527422840874
 31
0.0
  0
LINE
  5
86
330
82
100
AcDbEntity
  8
DIMENSION
 62
     0
100
AcDbLine
 10
249.4785807300518
 20
40.02527422840864
 30
0.0
 11
249.4785807300518
 21
37.52527422840864
 31
0.0
  0
LINE
  5
87
330
82
100
AcDbEntity
  8
DIMENSION
 62
     0
100
AcDbLine
 10
249.4785807300518
 20
60.02527422840874
 30
0.0
 11
249.4785807300518
 21
42.52527422840864
 31
0.0
  0
SOLID
  5
88
330
82
100
AcDbEntity
  8
DIMENSION
 62
     0
100
AcDbTrace
 10
249.0619140633851
 20
62.52527422840874
 30
0.0
 11
249.8952473967184
 21
62.52527422840874
 31
0.0
 12
249.4785807300518
 22
60.02527422840874
 32
0.0
 13
249.4785807300518
 23
60.02527422840874
 33
0.0
  0
SOLID
  5
89
330
82
100
AcDbEntity
  8
DIMENSION
 62
     0
100
AcDbTrace
 10
249.0619140633851
 20
40.02527422840864
 30
0.0
 11
249.8952473967184
 21
40.02527422840864
 31
0.0
 12
249.4785807300518
 22
42.52527422840864
 32
0.0
 13
249.4785807300518
 23
42.52527422840864
 33
0.0
  0
MTEXT
  5
8A
330
82
100
AcDbEntity
  8
DIMENSION
 62
     5
100
AcDbMText
 10
246.4785807300518
 20
45.66779443575524
 30
0.0
 40
4.0
 41
0.0
 71
     5
 72
     1
  1
\A1;17.5*
 11
0.0000000000000001
 21
1.0
 31
0.0
1001
ACAD
1000
MTEXTBEGIN
1070
    73
1070
     1
1070
    44
1040
1.0
1070
    74
1070
     0
1000
MTEXTEND
  0
POINT
  5
8B
330
82
100
AcDbEntity
  8
DEFPOINTS
 62
     0
100
AcDbPoint
 10
252.9852077778967
 20
60.02527422840874
 30
0.0
  0
POINT
  5
8C
330
82
100
AcDbEntity
  8
DEFPOINTS
 62
     0
100
AcDbPoint
 10
252.9852077778967
 20
42.52527422840864
 30
0.0
  0
POINT
  5
8D
330
82
100
AcDbEntity
  8
DEFPOINTS
 62
     0
100
AcDbPoint
 10
249.4785807300518
 20
42.52527422840864
 30
0.0
  0
ENDBLK
  5
8F
330
82
100
AcDbEntity
  8
0
100
AcDbBlockEnd
  0
BLOCK
  5
221
330
215
100
AcDbEntity
  8
0
100
AcDbBlockBegin
  2
*D11
 70
     1
 10
0.0
 20
0.0
 30
0.0
  3
*D11
  1

  0
LINE
  5
323
330
215
100
AcDbEntity
  8
DIMENSION
 62
     0
100
AcDbLine
 10
97.80660549317701
 20
177.5724161180974
 30
0.0
 11
103.8002794975988
 21
177.5724161180974
 31
0.0
  0
LINE
  5
324
330
215
100
AcDbEntity
  8
DIMENSION
 62
     0
100
AcDbLine
 10
97.80660549317701
 20
177.0724161180974
 30
0.0
 11
103.8002794975988
 21
177.0724161180974
 31
0.0
  0
LINE
  5
325
330
215
100
AcDbEntity
  8
DIMENSION
 62
     0
100
AcDbLine
 10
101.8002794975988
 20
177.5724161180974
 30
0.0
 11
101.8002794975988
 21
180.0724161180974
 31
0.0
  0
LINE
  5
326
330
215
100
AcDbEntity
  8
DIMENSION
 62
     0
100
AcDbLine
 10
101.8002794975988
 20
177.0724161180974
 30
0.0
 11
101.8002794975988
 21
161.691463737145
 31
0.0
  0
LINE
  5
327
330
215
100
AcDbEntity
  8
DIMENSION
 62
     0
100
AcDbLine
 10
101.8002794975988
 20
177.5724161180974
 30
0.0
 11
101.8002794975988
 21
177.0724161180974
 31
0.0
  0
INSERT
  5
328
330
215
100
AcDbEntity
  8
DIMENSION
 62
     0
100
AcDbBlockReference
  2
_OBLIQUE
 10
101.8002794975988
 20
177.5724161180974
 30
0.0
 41
2.5
 42
2.5
 43
2.5
 50
270.0
  0
INSERT
  5
329
330
215
100
AcDbEntity
  8
DIMENSION
 62
     0
100
AcDbBlockReference
  2
_OBLIQUE
 10
101.8002794975988
 20
177.0724161180974
 30
0.0
 41
2.5
 42
2.5
 43
2.5
 50
90.0
  0
MTEXT
  5
32A
330
215
100
AcDbEntity
  8
DIMENSION
 62
     5
100
AcDbMText
 10
98.80027949759881
 20
166.8819399276212
 30
0.0
 40
4.0
 41
0.0
 71
     5
 72
     1
  1
\A1;0.5
 11
0.0000000000000001
 21
1.0
 31
0.0
  0
POINT
  5
32B
330
215
100
AcDbEntity
  8
DEFPOINTS
 62
     0
100
AcDbPoint
 10
97.80660549317701
 20
177.5724161180974
 30
0.0
  0
POINT
  5
32C
330
215
100
AcDbEntity
  8
DEFPOINTS
 62
     0
100
AcDbPoint
 10
97.80660549317701
 20
177.0724161180974
 30
0.0
  0
POINT
  5
32D
330
215
100
AcDbEntity
  8
DEFPOINTS
 62
     0
100
AcDbPoint
 10
101.8002794975988
 20
177.0724161180974
 30
0.0
  0
ENDBLK
  5
222
330
215
100
AcDbEntity
  8
0
100
AcDbBlockEnd
  0
BLOCK
  5
22F
330
223
100
AcDbEntity
  8
0
100
AcDbBlockBegin
  2
*D12
 70
     1
 10
0.0
 20
0.0
 30
0.0
  3
*D12
  1

  0
LINE
  5
27E
330
223
100
AcDbEntity
  8
DIMENSION
 62
     0
100
AcDbLine
 10
92.80660549317705
 20
198.0724161180973
 30
0.0
 11
92.80660549317705
 21
202.1241390967745
 31
0.0
  0
LINE
  5
27F
330
223
100
AcDbEntity
  8
DIMENSION
 62
     0
100
AcDbLine
 10
97.80660549317701
 20
198.0724161180973
 30
0.0
 11
97.80660549317701
 21
202.1241390967745
 31
0.0
  0
LINE
  5
280
330
223
100
AcDbEntity
  8
DIMENSION
 62
     0
100
AcDbLine
 10
100.306605493177
 20
200.1241390967745
 30
0.0
 11
102.806605493177
 21
200.1241390967745
 31
0.0
  0
LINE
  5
281
330
223
100
AcDbEntity
  8
DIMENSION
 62
     0
100
AcDbLine
 10
90.30660549317705
 20
200.1241390967745
 30
0.0
 11
67.13993882651036
 21
200.1241390967745
 31
0.0
  0
LINE
  5
282
330
223
100
AcDbEntity
  8
DIMENSION
 62
     0
100
AcDbLine
 10
97.80660549317701
 20
200.1241390967745
 30
0.0
 11
92.80660549317705
 21
200.1241390967745
 31
0.0
  0
SOLID
  5
283
330
223
100
AcDbEntity
  8
DIMENSION
 62
     0
100
AcDbTrace
 10
100.306605493177
 20
200.5408057634412
 30
0.0
 11
100.306605493177
 21
199.7074724301079
 31
0.0
 12
97.80660549317701
 22
200.1241390967745
 32
0.0
 13
97.80660549317701
 23
200.1241390967745
 33
0.0
  0
SOLID
  5
284
330
223
100
AcDbEntity
  8
DIMENSION
 62
     0
100
AcDbTrace
 10
90.30660549317705
 20
200.5408057634412
 30
0.0
 11
90.30660549317705
 21
199.7074724301079
 31
0.0
 12
92.80660549317705
 22
200.1241390967745
 32
0.0
 13
92.80660549317705
 23
200.1241390967745
 33
0.0
  0
MTEXT
  5
285
330
223
100
AcDbEntity
  8
DIMENSION
 62
     5
100
AcDbMText
 10
77.4732721598437
 20
203.7908057634412
 30
0.0
 40
4.0
 41
0.0
 71
     5
 72
     1
  1
\A1;M5-6g
1001
ACAD
1000
MTEXTBEGIN
1070
    73
1070
     1
1070
    44
1040
1.0
1070
    74
1070
     0
1000
MTEXTEND
  0
POINT
  5
286
330
223
100
AcDbEntity
  8
DEFPOINTS
 62
     0
100
AcDbPoint
 10
92.80660549317705
 20
198.0724161180973
 30
0.0
  0
POINT
  5
287
330
223
100
AcDbEntity
  8
DEFPOINTS
 62
     0
100
AcDbPoint
 10
97.80660549317701
 20
198.0724161180973
 30
0.0
  0
POINT
  5
288
330
223
100
AcDbEntity
  8
DEFPOINTS
 62
     0
100
AcDbPoint
 10
97.80660549317701
 20
200.1241390967745
 30
0.0
  0
ENDBLK
  5
230
330
223
100
AcDbEntity
  8
0
100
AcDbBlockEnd
  0
BLOCK
  5
23B
330
231
100
AcDbEntity
  8
0
100
AcDbBlockBegin
  2
*D13
 70
     1
 10
0.0
 20
0.0
 30
0.0
  3
*D13
  1

  0
LINE
  5
289
330
231
100
AcDbEntity
  8
DIMENSION
 62
     0
100
AcDbLine
 10
97.30660549317679
 20
198.5724161180973
 30
0.0
 11
108.8341171064894
 21
198.5724161180973
 31
0.0
  0
LINE
  5
28A
330
231
100
AcDbEntity
  8
DIMENSION
 62
     0
100
AcDbLine
 10
97.80660549317701
 20
175.5724161180974
 30
0.0
 11
108.8341171064894
 21
175.5724161180974
 31
0.0
  0
LINE
  5
28B
330
231
100
AcDbEntity
  8
DIMENSION
 62
     0
100
AcDbLine
 10
106.8341171064894
 20
196.0724161180973
 30
0.0
 11
106.8341171064894
 21
178.0724161180974
 31
0.0
  0
SOLID
  5
28C
330
231
100
AcDbEntity
  8
DIMENSION
 62
     0
100
AcDbTrace
 10
106.4174504398227
 20
196.0724161180973
 30
0.0
 11
107.250783773156
 21
196.0724161180973
 31
0.0
 12
106.8341171064894
 22
198.5724161180973
 32
0.0
 13
106.8341171064894
 23
198.5724161180973
 33
0.0
  0
SOLID
  5
28D
330
231
100
AcDbEntity
  8
DIMENSION
 62
     0
100
AcDbTrace
 10
106.4174504398227
 20
178.0724161180974
 30
0.0
 11
107.250783773156
 21
178.0724161180974
 31
0.0
 12
106.8341171064894
 22
175.5724161180974
 32
0.0
 13
106.8341171064894
 23
175.5724161180974
 33
0.0
  0
MTEXT
  5
28E
330
231
100
AcDbEntity
  8
DIMENSION
 62
     5
100
AcDbMText
 10
103.8341171064893
 20
188.7252797094638
 30
0.0
 40
4.0
 41
0.0
 71
     5
 72
     1
  1
\A1;23
 11
0.0000000000000001
 21
1.0
 31
0.0
1001
ACAD
1000
MTEXTBEGIN
1070
    73
1070
     1
1070
    44
1040
1.0
1070
    74
1070
     0
1000
MTEXTEND
  0
POINT
  5
28F
330
231
100
AcDbEntity
  8
DEFPOINTS
 62
     0
100
AcDbPoint
 10
97.30660549317679
 20
198.5724161180973
 30
0.0
  0
POINT
  5
290
330
231
100
AcDbEntity
  8
DEFPOINTS
 62
     0
100
AcDbPoint
 10
97.80660549317701
 20
175.5724161180974
 30
0.0
  0
POINT
  5
291
330
231
100
AcDbEntity
  8
DEFPOINTS
 62
     0
100
AcDbPoint
 10
106.8341171064894
 20
175.5724161180974
 30
0.0
  0
ENDBLK
  5
23C
330
231
100
AcDbEntity
  8
0
100
AcDbBlockEnd
  0
BLOCK
  5
249
330
23D
100
AcDbEntity
  8
0
100
AcDbBlockBegin
  2
*D14
 70
     1
 10
0.0
 20
0.0
 30
0.0
  3
*D14
  1

  0
LINE
  5
292
330
23D
100
AcDbEntity
  8
DIMENSION
 62
     0
100
AcDbLine
 10
92.80660549317692
 20
222.4445676501054
 30
0.0
 11
92.80660549317692
 21
242.0583284294018
 31
0.0
  0
LINE
  5
293
330
23D
100
AcDbEntity
  8
DIMENSION
 62
     0
100
AcDbLine
 10
97.8066054931768
 20
222.4445676501054
 30
0.0
 11
97.8066054931768
 21
242.0583284294018
 31
0.0
  0
LINE
  5
294
330
23D
100
AcDbEntity
  8
DIMENSION
 62
     0
100
AcDbLine
 10
90.30660549317692
 20
240.0583284294018
 30
0.0
 11
87.80660549317692
 21
240.0583284294018
 31
0.0
  0
LINE
  5
295
330
23D
100
AcDbEntity
  8
DIMENSION
 62
     0
100
AcDbLine
 10
100.3066054931767
 20
240.0583284294018
 30
0.0
 11
123.4732721598434
 21
240.0583284294018
 31
0.0
  0
LINE
  5
296
330
23D
100
AcDbEntity
  8
DIMENSION
 62
     0
100
AcDbLine
 10
92.80660549317692
 20
240.0583284294018
 30
0.0
 11
97.8066054931768
 21
240.0583284294018
 31
0.0
  0
SOLID
  5
297
330
23D
100
AcDbEntity
  8
DIMENSION
 62
     0
100
AcDbTrace
 10
90.30660549317692
 20
240.4749950960685
 30
0.0
 11
90.30660549317692
 21
239.6416617627351
 31
0.0
 12
92.80660549317692
 22
240.0583284294018
 32
0.0
 13
92.80660549317692
 23
240.0583284294018
 33
0.0
  0
SOLID
  5
298
330
23D
100
AcDbEntity
  8
DIMENSION
 62
     0
100
AcDbTrace
 10
100.3066054931767
 20
240.4749950960685
 30
0.0
 11
100.3066054931767
 21
239.6416617627351
 31
0.0
 12
97.8066054931768
 22
240.0583284294018
 32
0.0
 13
97.8066054931768
 23
240.0583284294018
 33
0.0
  0
MTEXT
  5
299
330
23D
100
AcDbEntity
  8
DIMENSION
 62
     5
100
AcDbMText
 10
113.1399388265101
 20
243.0583284294018
 30
0.0
 40
4.0
 41
0.0
 71
     5
 72
     1
  1
\A1;M5-6H
1001
ACAD
1000
MTEXTBEGIN
1070
    73
1070
     1
1070
    44
1040
1.0
1070
    74
1070
     0
1000
MTEXTEND
  0
POINT
  5
29A
330
23D
100
AcDbEntity
  8
DEFPOINTS
 62
     0
100
AcDbPoint
 10
92.80660549317692
 20
222.4445676501054
 30
0.0
  0
POINT
  5
29B
330
23D
100
AcDbEntity
  8
DEFPOINTS
 62
     0
100
AcDbPoint
 10
97.8066054931768
 20
222.4445676501054
 30
0.0
  0
POINT
  5
29C
330
23D
100
AcDbEntity
  8
DEFPOINTS
 62
     0
100
AcDbPoint
 10
97.8066054931768
 20
240.0583284294018
 30
0.0
  0
ENDBLK
  5
24A
330
23D
100
AcDbEntity
  8
0
100
AcDbBlockEnd
  0
BLOCK
  5
257
330
24B
100
AcDbEntity
  8
0
100
AcDbBlockBegin
  2
*D15
 70
     1
 10
0.0
 20
0.0
 30
0.0
  3
*D15
  1

  0
LINE
  5
29D
330
24B
100
AcDbEntity
  8
DIMENSION
 62
     0
100
AcDbLine
 10
92.80660549317701
 20
175.5724161180974
 30
0.0
 11
89.6188838723655
 21
175.5724161180974
 31
0.0
  0
LINE
  5
29E
330
24B
100
AcDbEntity
  8
DIMENSION
 62
     0
100
AcDbLine
 10
92.80660549317701
 20
177.0724161180974
 30
0.0
 11
89.6188838723655
 21
177.0724161180974
 31
0.0
  0
LINE
  5
29F
330
24B
100
AcDbEntity
  8
DIMENSION
 62
     0
100
AcDbLine
 10
91.61888387236549
 20
179.5724161180974
 30
0.0
 11
91.61888387236549
 21
182.0724161180974
 31
0.0
  0
LINE
  5
2A0
330
24B
100
AcDbEntity
  8
DIMENSION
 62
     0
100
AcDbLine
 10
91.61888387236549
 20
173.0724161180974
 30
0.0
 11
91.61888387236549
 21
161.9057494514307
 31
0.0
  0
LINE
  5
2A1
330
24B
100
AcDbEntity
  8
DIMENSION
 62
     0
100
AcDbLine
 10
91.61888387236549
 20
177.0724161180974
 30
0.0
 11
91.61888387236549
 21
175.5724161180974
 31
0.0
  0
SOLID
  5
2A2
330
24B
100
AcDbEntity
  8
DIMENSION
 62
     0
100
AcDbTrace
 10
91.20221720569883
 20
179.5724161180974
 30
0.0
 11
92.03555053903217
 21
179.5724161180974
 31
0.0
 12
91.61888387236549
 22
177.0724161180974
 32
0.0
 13
91.61888387236549
 23
177.0724161180974
 33
0.0
  0
SOLID
  5
2A3
330
24B
100
AcDbEntity
  8
DIMENSION
 62
     0
100
AcDbTrace
 10
91.20221720569883
 20
173.0724161180974
 30
0.0
 11
92.03555053903217
 21
173.0724161180974
 31
0.0
 12
91.61888387236549
 22
175.5724161180974
 32
0.0
 13
91.61888387236549
 23
175.5724161180974
 33
0.0
  0
MTEXT
  5
2A4
330
24B
100
AcDbEntity
  8
DIMENSION
 62
     5
100
AcDbMText
 10
88.61888387236547
 20
166.239082784764
 30
0.0
 40
4.0
 41
0.0
 71
     5
 72
     1
  1
\A1;1.5
 11
0.0000000000000001
 21
1.0
 31
0.0
1001
ACAD
1000
MTEXTBEGIN
1070
    73
1070
     1
1070
    44
1040
1.0
1070
    74
1070
     0
1000
MTEXTEND
  0
POINT
  5
2A5
330
24B
100
AcDbEntity
  8
DEFPOINTS
 62
     0
100
AcDbPoint
 10
92.80660549317701
 20
175.5724161180974
 30
0.0
  0
POINT
  5
2A6
330
24B
100
AcDbEntity
  8
DEFPOINTS
 62
     0
100
AcDbPoint
 10
92.80660549317701
 20
177.0724161180974
 30
0.0
  0
POINT
  5
2A7
330
24B
100
AcDbEntity
  8
DEFPOINTS
 62
     0
100
AcDbPoint
 10
91.61888387236549
 20
177.0724161180974
 30
0.0
  0
ENDBLK
  5
258
330
24B
100
AcDbEntity
  8
0
100
AcDbBlockEnd
  0
BLOCK
  5
263
330
259
100
AcDbEntity
  8
0
100
AcDbBlockBegin
  2
*D16
 70
     1
 10
0.0
 20
0.0
 30
0.0
  3
*D16
  1

  0
LINE
  5
2A8
330
259
100
AcDbEntity
  8
DIMENSION
 62
     0
100
AcDbLine
 10
97.80660549317705
 20
175.5724161180974
 30
0.0
 11
86.6741852018208
 21
175.5724161180974
 31
0.0
  0
LINE
  5
2A9
330
259
100
AcDbEntity
  8
DIMENSION
 62
     0
100
AcDbLine
 10
97.80660549317701
 20
195.0724161180973
 30
0.0
 11
86.6741852018208
 21
195.0724161180973
 31
0.0
  0
LINE
  5
2AA
330
259
100
AcDbEntity
  8
DIMENSION
 62
     0
100
AcDbLine
 10
88.67418520182079
 20
178.0724161180974
 30
0.0
 11
88.67418520182079
 21
192.5724161180974
 31
0.0
  0
SOLID
  5
2AB
330
259
100
AcDbEntity
  8
DIMENSION
 62
     0
100
AcDbTrace
 10
88.25751853515411
 20
178.0724161180974
 30
0.0
 11
89.09085186848747
 21
178.0724161180974
 31
0.0
 12
88.67418520182079
 22
175.5724161180974
 32
0.0
 13
88.67418520182079
 23
175.5724161180974
 33
0.0
  0
SOLID
  5
2AC
330
259
100
AcDbEntity
  8
DIMENSION
 62
     0
100
AcDbTrace
 10
88.25751853515411
 20
192.5724161180974
 30
0.0
 11
89.09085186848747
 21
192.5724161180974
 31
0.0
 12
88.67418520182079
 22
195.0724161180973
 32
0.0
 13
88.67418520182079
 23
195.0724161180973
 33
0.0
  0
MTEXT
  5
2AD
330
259
100
AcDbEntity
  8
DIMENSION
 62
     5
100
AcDbMText
 10
85.67418520182076
 20
186.2193232943439
 30
0.0
 40
4.0
 41
0.0
 71
     5
 72
     1
  1
\A1;19.5
 11
0.0000000000000001
 21
1.0
 31
0.0
1001
ACAD
1000
MTEXTBEGIN
1070
    73
1070
     1
1070
    44
1040
1.0
1070
    74
1070
     0
1000
MTEXTEND
  0
POINT
  5
2AE
330
259
100
AcDbEntity
  8
DEFPOINTS
 62
     0
100
AcDbPoint
 10
97.80660549317705
 20
175.5724161180974
 30
0.0
  0
POINT
  5
2AF
330
259
100
AcDbEntity
  8
DEFPOINTS
 62
     0
100
AcDbPoint
 10
97.80660549317701
 20
195.0724161180973
 30
0.0
  0
POINT
  5
2B0
330
259
100
AcDbEntity
  8
DEFPOINTS
 62
     0
100
AcDbPoint
 10
88.67418520182079
 20
195.0724161180973
 30
0.0
  0
ENDBLK
  5
264
330
259
100
AcDbEntity
  8
0
100
AcDbBlockEnd
  0
BLOCK
  5
271
330
265
100
AcDbEntity
  8
0
100
AcDbBlockBegin
  2
*D17
 70
     1
 10
0.0
 20
0.0
 30
0.0
  3
*D17
  1

  0
LINE
  5
2B1
330
265
100
AcDbEntity
  8
DIMENSION
 62
     0
100
AcDbLine
 10
175.3948912734617
 20
218.9445676501054
 30
0.0
 11
169.8882642256168
 21
218.9445676501054
 31
0.0
  0
LINE
  5
2B2
330
265
100
AcDbEntity
  8
DIMENSION
 62
     0
100
AcDbLine
 10
175.3948912734617
 20
201.4445676501053
 30
0.0
 11
169.8882642256168
 21
201.4445676501053
 31
0.0
  0
LINE
  5
2B3
330
265
100
AcDbEntity
  8
DIMENSION
 62
     0
100
AcDbLine
 10
171.8882642256168
 20
221.4445676501054
 30
0.0
 11
171.8882642256168
 21
223.9445676501054
 31
0.0
  0
LINE
  5
2B4
330
265
100
AcDbEntity
  8
DIMENSION
 62
     0
100
AcDbLine
 10
171.8882642256168
 20
198.9445676501053
 30
0.0
 11
171.8882642256168
 21
196.4445676501053
 31
0.0
  0
LINE
  5
2B5
330
265
100
AcDbEntity
  8
DIMENSION
 62
     0
100
AcDbLine
 10
171.8882642256168
 20
218.9445676501054
 30
0.0
 11
171.8882642256168
 21
201.4445676501053
 31
0.0
  0
SOLID
  5
2B6
330
265
100
AcDbEntity
  8
DIMENSION
 62
     0
100
AcDbTrace
 10
171.4715975589502
 20
221.4445676501054
 30
0.0
 11
172.3049308922835
 21
221.4445676501054
 31
0.0
 12
171.8882642256168
 22
218.9445676501054
 32
0.0
 13
171.8882642256168
 23
218.9445676501054
 33
0.0
  0
SOLID
  5
2B7
330
265
100
AcDbEntity
  8
DIMENSION
 62
     0
100
AcDbTrace
 10
171.4715975589502
 20
198.9445676501053
 30
0.0
 11
172.3049308922835
 21
198.9445676501053
 31
0.0
 12
171.8882642256168
 22
201.4445676501053
 32
0.0
 13
171.8882642256168
 23
201.4445676501053
 33
0.0
  0
MTEXT
  5
2B8
330
265
100
AcDbEntity
  8
DIMENSION
 62
     5
100
AcDbMText
 10
168.8882642256167
 20
204.5870878574519
 30
0.0
 40
4.0
 41
0.0
 71
     5
 72
     1
  1
\A1;17.5*
 11
0.0000000000000001
 21
1.0
 31
0.0
1001
ACAD
1000
MTEXTBEGIN
1070
    73
1070
     1
1070
    44
1040
1.0
1070
    74
1070
     0
1000
MTEXTEND
  0
POINT
  5
2B9
330
265
100
AcDbEntity
  8
DEFPOINTS
 62
     0
100
AcDbPoint
 10
175.3948912734617
 20
218.9445676501054
 30
0.0
  0
POINT
  5
2BA
330
265
100
AcDbEntity
  8
DEFPOINTS
 62
     0
100
AcDbPoint
 10
175.3948912734617
 20
201.4445676501053
 30
0.0
  0
POINT
  5
2BB
330
265
100
AcDbEntity
  8
DEFPOINTS
 62
     0
100
AcDbPoint
 10
171.8882642256168
 20
201.4445676501053
 30
0.0
  0
ENDBLK
  5
272
330
265
100
AcDbEntity
  8
0
100
AcDbBlockEnd
  0
ENDSEC
  0
SECTION
  2
ENTITIES
  0
DIMENSION
  5
158
330
1F
100
AcDbEntity
  8
DIMENSION
100
AcDbDimension
  2
*D11
 10
101.8002794975988
 20
177.0724161180974
 30
0.0
 11
101.8002794975988
 21
166.8819399276212
 31
0.0
 70
   160
  3
STANDARD
100
AcDbAlignedDimension
 13
97.80660549317701
 23
177.5724161180974
 33
0.0
 14
97.80660549317701
 24
177.0724161180974
 34
0.0
 50
90.0
100
AcDbRotatedDimension
1001
ACAD
1000
DSTYLE
1002
{
1070
     6
1000
OBLIQUE
1070
   173
1070
     1
1070
     7
1000
OBLIQUE
1070
    41
1040
2.5
1070
    42
1040
0.0
1070
    43
1040
3.75
1070
    44
1040
2.0
1070
    73
1070
     0
1070
    74
1070
     0
1070
    77
1070
     1
1070
    78
1070
     8
1070
   140
1040
4.0
1070
   141
1040
2.5
1070
   143
1040
0.0394
1070
   147
1040
1.0
1070
   171
1070
     4
1070
   172
1070
     1
1070
   178
1070
     5
1070
   271
1070
     2
1070
   272
1070
     2
1070
   273
1070
     8
1070
   274
1070
     4
1070
   288
1070
     1
1002
}
  0
DIMENSION
  5
159
330
1F
100
AcDbEntity
  8
DIMENSION
100
AcDbDimension
  2
*D12
 10
97.80660549317701
 20
200.1241390967745
 30
0.0
 11
77.4732721598437
 21
200.1241390967745
 31
0.0
 70
   160
  1
M<>-6g
  3
STANDARD
100
AcDbAlignedDimension
 13
92.80660549317705
 23
198.0724161180973
 33
0.0
 14
97.80660549317701
 24
198.0724161180973
 34
0.0
100
AcDbRotatedDimension
1001
ACAD
1000
DSTYLE
1002
{
1070
    41
1040
2.5
1070
    42
1040
0.0
1070
    43
1040
3.75
1070
    44
1040
2.0
1070
    73
1070
     0
1070
    74
1070
     0
1070
    77
1070
     1
1070
    78
1070
     8
1070
   140
1040
4.0
1070
   141
1040
2.5
1070
   143
1040
0.0394
1070
   147
1040
1.0
1070
   171
1070
     4
1070
   172
1070
     1
1070
   178
1070
     5
1070
   271
1070
     2
1070
   272
1070
     2
1070
   273
1070
     8
1070
   274
1070
     4
1070
   288
1070
     1
1002
}
  0
DIMENSION
  5
15A
330
1F
100
AcDbEntity
  8
DIMENSION
100
AcDbDimension
  2
*D13
 10
106.8341171064894
 20
175.5724161180974
 30
0.0
 11
106.8341171064893
 21
188.7252797094638
 31
0.0
 70
   160
  3
STANDARD
100
AcDbAlignedDimension
 13
97.30660549317679
 23
198.5724161180973
 33
0.0
 14
97.80660549317701
 24
175.5724161180974
 34
0.0
 50
90.0
100
AcDbRotatedDimension
1001
ACAD
1000
DSTYLE
1002
{
1070
    41
1040
2.5
1070
    42
1040
0.0
1070
    43
1040
3.75
1070
    44
1040
2.0
1070
    73
1070
     0
1070
    74
1070
     0
1070
    77
1070
     1
1070
    78
1070
     8
1070
   140
1040
4.0
1070
   141
1040
2.5
1070
   143
1040
0.0394
1070
   147
1040
1.0
1070
   171
1070
     4
1070
   172
1070
     1
1070
   178
1070
     5
1070
   271
1070
     2
1070
   272
1070
     2
1070
   273
1070
     8
1070
   274
1070
     4
1070
   288
1070
     1
1002
}
  0
LINE
  5
15B
330
1F
100
AcDbEntity
  8
0
100
AcDbLine
 10
88.80660549317694
 20
228.4445676501054
 30
0.0
 11
160.306605493177
 21
228.4445676501054
 31
0.0
  0
LINE
  5
15C
330
1F
100
AcDbEntity
  8
0
100
AcDbLine
 10
90.30660549317701
 20
230.4445676501054
 30
0.0
 11
160.306605493177
 21
230.4445676501054
 31
0.0
  0
LINE
  5
15D
330
1F
100
AcDbEntity
  8
0
100
AcDbLine
 10
90.30660549317701
 20
236.4445676501054
 30
0.0
 11
134.3066054931769
 21
236.4445676501054
 31
0.0
  0
LINE
  5
15E
330
1F
100
AcDbEntity
  8
0
100
AcDbLine
 10
104.3800224781004
 20
215.4445676501054
 30
0.0
 11
101.119152912883
 21
220.4445676501054
 31
0.0
  0
LINE
  5
15F
330
1F
100
AcDbEntity
  8
0
100
AcDbLine
 10
103.2413881018725
 20
214.4445676501053
 30
0.0
 11
90.30660549317701
 21
214.4445676501054
 31
0.0
  0
LINE
  5
160
330
1F
100
AcDbEntity
  8
CENTER
100
AcDbLine
 10
109.8066054931768
 20
225.4445676501054
 30
0.0
 11
96.23408535487854
 21
225.4445676501054
 31
0.0
  0
CIRCLE
  5
161
330
1F
100
AcDbEntity
  8
0
100
AcDbCircle
 10
102.806605493177
 20
225.4445676501054
 30
0.0
 40
2.0
  0
LINE
  5
162
102
{ACAD_REACTORS
330
179
102
}
330
1F
100
AcDbEntity
  8
0
100
AcDbLine
 10
138.3066054931769
 20
222.4445676501054
 30
0.0
 11
88.80660549317694
 21
222.4445676501054
 31
0.0
  0
LINE
  5
163
330
1F
100
AcDbEntity
  8
0
100
AcDbLine
 10
107.806605493177
 20
207.4445676501054
 30
0.0
 11
100.306605493177
 21
218.9445676501054
 31
0.0
  0
DIMENSION
  5
164
330
1F
100
AcDbEntity
  8
DIMENSION
100
AcDbDimension
  2
*D14
 10
97.8066054931768
 20
240.0583284294018
 30
0.0
 11
113.1399388265101
 21
240.0583284294018
 31
0.0
 70
   160
  1
M<>-6H
  3
STANDARD
100
AcDbAlignedDimension
 13
92.80660549317692
 23
222.4445676501054
 33
0.0
 14
97.8066054931768
 24
222.4445676501054
 34
0.0
100
AcDbRotatedDimension
1001
ACAD
1000
DSTYLE
1002
{
1070
    41
1040
2.5
1070
    42
1040
0.0
1070
    43
1040
3.75
1070
    44
1040
2.0
1070
    73
1070
     0
1070
    74
1070
     0
1070
    77
1070
     1
1070
    78
1070
     8
1070
   140
1040
4.0
1070
   141
1040
2.5
1070
   143
1040
0.0394
1070
   147
1040
1.0
1070
   171
1070
     4
1070
   172
1070
     1
1070
   178
1070
     5
1070
   271
1070
     2
1070
   272
1070
     2
1070
   273
1070
     8
1070
   274
1070
     4
1070
   288
1070
     1
1002
}
  0
DIMENSION
  5
165
330
1F
100
AcDbEntity
  8
DIMENSION
100
AcDbDimension
  2
*D15
 10
91.61888387236549
 20
177.0724161180974
 30
0.0
 11
91.61888387236547
 21
166.239082784764
 31
0.0
 70
   160
  3
STANDARD
100
AcDbAlignedDimension
 13
92.80660549317701
 23
175.5724161180974
 33
0.0
 14
92.80660549317701
 24
177.0724161180974
 34
0.0
 50
90.0
100
AcDbRotatedDimension
1001
ACAD
1000
DSTYLE
1002
{
1070
    41
1040
2.5
1070
    42
1040
0.0
1070
    43
1040
3.75
1070
    44
1040
2.0
1070
    73
1070
     0
1070
    74
1070
     0
1070
    77
1070
     1
1070
    78
1070
     8
1070
   140
1040
4.0
1070
   141
1040
2.5
1070
   143
1040
0.0394
1070
   147
1040
1.0
1070
   171
1070
     4
1070
   172
1070
     1
1070
   178
1070
     5
1070
   271
1070
     2
1070
   272
1070
     2
1070
   273
1070
     8
1070
   274
1070
     4
1070
   288
1070
     1
1002
}
  0
LINE
  5
166
330
1F
100
AcDbEntity
  8
CENTER
100
AcDbLine
 10
95.30660549317701
 20
199.5724161180973
 30
0.0
 11
95.30660549317701
 21
174.5724161180974
 31
0.0
  0
LINE
  5
167
330
1F
100
AcDbEntity
  8
FORM
100
AcDbLine
 10
92.80660549317701
 20
177.5724161180974
 30
0.0
 11
92.80660549317705
 21
198.0724161180973
 31
0.0
  0
DIMENSION
  5
168
330
1F
100
AcDbEntity
  8
DIMENSION
100
AcDbDimension
  2
*D16
 10
88.67418520182079
 20
195.0724161180973
 30
0.0
 11
88.67418520182075
 21
186.2193232943439
 31
0.0
 70
   160
  3
STANDARD
100
AcDbAlignedDimension
 13
97.80660549317705
 23
175.5724161180974
 33
0.0
 14
97.80660549317701
 24
195.0724161180973
 34
0.0
 50
90.0
100
AcDbRotatedDimension
1001
ACAD
1000
DSTYLE
1002
{
1070
    41
1040
2.5
1070
    42
1040
0.0
1070
    43
1040
3.75
1070
    44
1040
2.0
1070
    73
1070
     0
1070
    74
1070
     0
1070
    77
1070
     1
1070
    78
1070
     8
1070
   140
1040
4.0
1070
   141
1040
2.5
1070
   143
1040
0.0394
1070
   147
1040
1.0
1070
   171
1070
     4
1070
   172
1070
     1
1070
   178
1070
     5
1070
   271
1070
     2
1070
   272
1070
     2
1070
   273
1070
     8
1070
   274
1070
     4
1070
   288
1070
     1
1002
}
  0
LINE
  5
169
330
1F
100
AcDbEntity
  8
FORM
100
AcDbLine
 10
97.80660549317701
 20
177.5724161180974
 30
0.0
 11
97.80660549317701
 21
198.0724161180973
 31
0.0
  0
LINE
  5
16A
330
1F
100
AcDbEntity
  8
FORM
100
AcDbLine
 10
97.80660549317701
 20
175.5724161180974
 30
0.0
 11
92.80660549317701
 21
175.5724161180974
 31
0.0
  0
LINE
  5
16B
330
1F
100
AcDbEntity
  8
FORM
100
AcDbLine
 10
92.80660549317701
 20
177.0724161180974
 30
0.0
 11
97.80660549317701
 21
177.0724161180974
 31
0.0
  0
LINE
  5
16C
330
1F
100
AcDbEntity
  8
FORM
100
AcDbLine
 10
92.80660549317701
 20
177.5724161180974
 30
0.0
 11
97.80660549317701
 21
177.5724161180974
 31
0.0
  0
LINE
  5
16D
330
1F
100
AcDbEntity
  8
FORM
100
AcDbLine
 10
92.80660549317701
 20
175.5724161180974
 30
0.0
 11
92.80660549317701
 21
177.0724161180974
 31
0.0
  0
LINE
  5
16E
330
1F
100
AcDbEntity
  8
FORM
100
AcDbLine
 10
93.30660549317702
 20
177.0724161180974
 30
0.0
 11
93.30660549317698
 21
177.5724161180974
 31
0.0
  0
LINE
  5
16F
330
1F
100
AcDbEntity
  8
FORM
100
AcDbLine
 10
97.30660549317702
 20
177.0724161180974
 30
0.0
 11
97.30660549317699
 21
177.5724161180974
 31
0.0
  0
LINE
  5
170
330
1F
100
AcDbEntity
  8
FORM
100
AcDbLine
 10
97.80660549317705
 20
175.5724161180974
 30
0.0
 11
97.80660549317701
 21
177.0724161180974
 31
0.0
  0
LINE
  5
171
330
1F
100
AcDbEntity
  8
FORM
100
AcDbLine
 10
92.80660549317705
 20
198.0724161180973
 30
0.0
 11
97.80660549317701
 21
198.0724161180973
 31
0.0
  0
LINE
  5
172
330
1F
100
AcDbEntity
  8
FORM
100
AcDbLine
 10
92.80660549317701
 20
195.0724161180973
 30
0.0
 11
97.80660549317701
 21
195.0724161180973
 31
0.0
  0
LINE
  5
173
330
1F
100
AcDbEntity
  8
FORM
100
AcDbLine
 10
93.30660549317704
 20
198.5724161180973
 30
0.0
 11
97.30660549317702
 21
198.5724161180973
 31
0.0
  0
LINE
  5
174
330
1F
100
AcDbEntity
  8
T
100
AcDbLine
 10
93.30660549317693
 20
195.0724161180973
 30
0.0
 11
93.30660549317693
 21
198.5724161180974
 31
0.0
  0
LINE
  5
175
330
1F
100
AcDbEntity
  8
FORM
100
AcDbLine
 10
92.80660549317705
 20
198.0724161180973
 30
0.0
 11
93.30660549317704
 21
198.5724161180973
 31
0.0
  0
LINE
  5
176
330
1F
100
AcDbEntity
  8
FORM
100
AcDbLine
 10
97.30660549317702
 20
198.5724161180973
 30
0.0
 11
97.80660549317701
 21
198.0724161180973
 31
0.0
  0
LINE
  5
177
330
1F
100
AcDbEntity
  8
T
100
AcDbLine
 10
97.30660549317679
 20
195.0724161180973
 30
0.0
 11
97.30660549317679
 21
198.5724161180974
 31
0.0
  0
LINE
  5
178
330
1F
100
AcDbEntity
  8
CENTER
100
AcDbLine
 10
95.30660549317701
 20
217.9445676501054
 30
0.0
 11
95.30660549317701
 21
223.3959003777406
 31
0.0
  0
HATCH
  5
179
330
1F
100
AcDbEntity
  8
T
100
AcDbHatch
 10
0.0
 20
0.0
 30
0.0
210
0.0
220
0.0
230
1.0
  2
ANSI31
 70
     0
 71
     1
 91
        2
 92
        7
 72
     0
 73
     1
 93
        7
 10
93.30660549317693
 20
222.4445676501054
 10
92.09722479113702
 20
222.4445676501054
 10
91.89328558113462
 20
220.916356254978
 10
92.41067049695216
 20
219.6945128006705
 10
92.09126659768202
 20
218.9445676501054
 10
92.80660549317701
 20
218.9445676501054
 10
93.30660549317693
 20
218.9445676501054
 97
        5
330
162
330
180
330
183
330
187
330
17C
 92
        7
 72
     0
 73
     1
 93
        7
 10
97.30660549317679
 20
218.9445676501054
 10
97.80660549317701
 20
218.9445676501054
 10
99.29321670375111
 20
218.9445676501054
 10
98.99556760752805
 20
219.8824881756904
 10
99.65405741381459
 20
221.2923082838099
 10
99.13508858425561
 20
222.4445676501054
 10
97.30660549317679
 20
222.4445676501054
 97
        5
330
17A
330
162
330
17D
330
187
330
189
 75
     0
 76
     1
 52
0.0
 41
0.2
 77
     0
 78
     1
 53
45.0
 43
-77.12455830905838
 44
210.1987879383578
 45
-0.4490128060534576
 46
0.4490128060534577
 79
     0
 47
0.0310976816233688
 98
        2
 10
93.00464062678353
 20
220.527581779828
 10
97.89123571416752
 20
220.7452660481226
  0
LWPOLYLINE
  5
17A
102
{ACAD_REACTORS
330
179
102
}
330
1F
100
AcDbEntity
  8
FORM
100
AcDbPolyline
 90
        4
 70
     0
 43
0.0
 10
99.13508858425565
 20
222.4445676501054
 10
99.65405741381463
 20
221.2923082838099
 10
98.99556760752805
 20
219.8824881756904
 10
99.29321670375111
 20
218.9445676501054
  0
LINE
  5
17B
330
1F
100
AcDbEntity
  8
T
 62
     6
100
AcDbLine
 10
97.8066054931768
 20
218.9445676501054
 30
0.0
 11
97.8066054931768
 21
222.4445676501054
 31
0.0
  0
LINE
  5
17C
102
{ACAD_REACTORS
330
179
102
}
330
1F
100
AcDbEntity
  8
FORM
100
AcDbLine
 10
93.30660549317693
 20
218.9445676501054
 30
0.0
 11
93.30660549317693
 21
222.4445676501054
 31
0.0
  0
LINE
  5
17D
102
{ACAD_REACTORS
330
179
102
}
330
1F
100
AcDbEntity
  8
FORM
100
AcDbLine
 10
97.30660549317679
 20
218.9445676501054
 30
0.0
 11
97.30660549317679
 21
222.4445676501054
 31
0.0
  0
LINE
  5
17E
330
1F
100
AcDbEntity
  8
T
 62
     6
100
AcDbLine
 10
92.80660549317692
 20
218.9445676501054
 30
0.0
 11
92.80660549317692
 21
222.4445676501054
 31
0.0
  0
LINE
  5
17F
330
1F
100
AcDbEntity
  8
0
100
AcDbLine
 10
88.80660549317694
 20
222.4445676501054
 30
0.0
 11
88.80660549317694
 21
220.4445676501054
 31
0.0
  0
LWPOLYLINE
  5
180
102
{ACAD_REACTORS
330
179
102
}
330
1F
100
AcDbEntity
  8
FORM
100
AcDbPolyline
 90
        4
 70
     0
 43
0.0
 10
92.09722479113702
 20
222.4445676501054
 10
91.89328558113462
 20
220.916356254978
 10
92.41067049695212
 20
219.6945128006704
 10
92.09126659768202
 20
218.9445676501054
  0
LINE
  5
181
330
1F
100
AcDbEntity
  8
0
100
AcDbLine
 10
92.03049998766662
 20
221.9445676501054
 30
0.0
 11
88.80660549317694
 21
221.9445676501054
 31
0.0
  0
LINE
  5
182
330
1F
100
AcDbEntity
  8
0
100
AcDbLine
 10
92.09306265302961
 20
220.4445676501054
 30
0.0
 11
90.30660549317701
 21
220.4445676501054
 31
0.0
  0
LINE
  5
183
102
{ACAD_REACTORS
330
179
102
}
330
1F
100
AcDbEntity
  8
0
100
AcDbLine
 10
92.80660549317701
 20
218.9445676501054
 30
0.0
 11
91.30660549317701
 21
218.9445676501054
 31
0.0
  0
LINE
  5
184
330
1F
100
AcDbEntity
  8
0
100
AcDbLine
 10
91.30660549317701
 20
218.9445676501054
 30
0.0
 11
91.30660549317701
 21
220.4445676501054
 31
0.0
  0
LINE
  5
185
330
1F
100
AcDbEntity
  8
0
100
AcDbLine
 10
90.30660549317701
 20
220.4445676501054
 30
0.0
 11
88.80660549317694
 21
220.4445676501054
 31
0.0
  0
LINE
  5
186
330
1F
100
AcDbEntity
  8
0
100
AcDbLine
 10
90.30660549317701
 20
214.4445676501054
 30
0.0
 11
90.30660549317701
 21
220.4445676501054
 31
0.0
  0
LINE
  5
187
102
{ACAD_REACTORS
330
179
102
}
330
1F
100
AcDbEntity
  8
FORM
100
AcDbLine
 10
92.80660549317701
 20
218.9445676501054
 30
0.0
 11
97.80660549317701
 21
218.9445676501054
 31
0.0
  0
LINE
  5
188
330
1F
100
AcDbEntity
  8
0
100
AcDbLine
 10
101.119152912883
 20
220.4445676501054
 30
0.0
 11
99.25810011227364
 21
220.4445676501054
 31
0.0
  0
LINE
  5
189
102
{ACAD_REACTORS
330
179
102
}
330
1F
100
AcDbEntity
  8
0
100
AcDbLine
 10
100.306605493177
 20
218.9445676501054
 30
0.0
 11
97.80660549317701
 21
218.9445676501054
 31
0.0
  0
LINE
  5
18A
330
1F
100
AcDbEntity
  8
0
100
AcDbLine
 10
98.80660549317694
 20
228.9445676501054
 30
0.0
 11
88.80660549317694
 21
228.9445676501054
 31
0.0
  0
LINE
  5
18B
330
1F
100
AcDbEntity
  8
0
100
AcDbLine
 10
90.30660549317701
 20
230.4445676501054
 30
0.0
 11
90.30660549317701
 21
236.4445676501054
 31
0.0
  0
LINE
  5
18C
330
1F
100
AcDbEntity
  8
0
100
AcDbLine
 10
88.80660549317694
 20
230.4445676501054
 30
0.0
 11
88.80660549317694
 21
228.4445676501054
 31
0.0
  0
LINE
  5
18D
330
1F
100
AcDbEntity
  8
0
100
AcDbLine
 10
90.30660549317701
 20
230.4445676501054
 30
0.0
 11
88.80660549317694
 21
230.4445676501054
 31
0.0
  0
LINE
  5
18E
330
1F
100
AcDbEntity
  8
0
100
AcDbLine
 10
90.30660549317701
 20
222.4445676501054
 30
0.0
 11
90.30660549317701
 21
228.4445676501054
 31
0.0
  0
LINE
  5
18F
330
1F
100
AcDbEntity
  8
0
100
AcDbLine
 10
96.80660549317693
 20
230.4445676501054
 30
0.0
 11
96.80660549317693
 21
228.9445676501054
 31
0.0
  0
LINE
  5
190
330
1F
100
AcDbEntity
  8
0
100
AcDbLine
 10
101.806605493177
 20
230.4445676501054
 30
0.0
 11
101.806605493177
 21
228.4445676501054
 31
0.0
  0
LINE
  5
191
330
1F
100
AcDbEntity
  8
0
100
AcDbLine
 10
98.80660549317694
 20
228.4445676501054
 30
0.0
 11
98.80660549317694
 21
230.4445676501054
 31
0.0
  0
LEADER
  5
192
330
1F
100
AcDbEntity
  8
DIMENSION
100
AcDbLeader
  3
STANDARD
 71
     0
 73
     0
 74
     0
 75
     1
 40
4.0
 41
0.9523809523809525
 76
     3
 10
197.2397084835241
 20
226.4882629943015
 30
0.0
 10
216.8435027684905
 20
197.4345052977212
 30
0.0
 10
219.3435027684905
 20
197.4345052977212
 30
0.0
340
193
213
0.0
223
-2.0
233
0.0
1001
ACAD
1000
DSTYLE
1002
{
1070
     5
1000
NONE
1070
    41
1040
2.5
1070
    42
1040
0.0
1070
    43
1040
3.75
1070
    44
1040
2.0
1070
    73
1070
     0
1070
    74
1070
     0
1070
    77
1070
     1
1070
    78
1070
     8
1070
   140
1040
4.0
1070
   141
1040
2.5
1070
   143
1040
0.0394
1070
   147
1040
0.0
1070
   171
1070
     4
1070
   172
1070
     1
1070
   178
1070
     5
1070
   271
1070
     2
1070
   272
1070
     2
1070
   273
1070
     8
1070
   274
1070
     4
1070
   288
1070
     1
1070
   341
1005
7F
1002
}
  0
MTEXT
  5
193
102
{ACAD_REACTORS
330
192
102
}
330
1F
100
AcDbEntity
  8
DIMENSION
 62
     5
100
AcDbMText
 10
219.3435027684905
 20
203.4345052977212
 30
0.0
 40
4.0
 41
0.0
 71
     1
 72
     1
  1
1
1001
ACAD
1000
MTEXTBEGIN
1070
    73
1070
     1
1070
    44
1040
1.0
1070
    74
1070
     0
1000
MTEXTEND
  0
DIMENSION
  5
194
330
1F
100
AcDbEntity
  8
DIMENSION
100
AcDbDimension
  2
*D17
 10
171.8882642256168
 20
201.4445676501053
 30
0.0
 11
171.8882642256168
 21
204.5870878574519
 31
0.0
 70
   160
  1
<>*
  3
STANDARD
100
AcDbAlignedDimension
 13
175.3948912734617
 23
218.9445676501054
 33
0.0
 14
175.3948912734617
 24
201.4445676501053
 34
0.0
 50
90.0
100
AcDbRotatedDimension
1001
ACAD
1000
DSTYLE
1002
{
1070
    41
1040
2.5
1070
    42
1040
0.0
1070
    43
1040
3.75
1070
    44
1040
2.0
1070
    73
1070
     0
1070
    74
1070
     0
1070
    77
1070
     1
1070
    78
1070
     8
1070
   140
1040
4.0
1070
   141
1040
2.5
1070
   143
1040
0.0394
1070
   147
1040
1.0
1070
   171
1070
     4
1070
   172
1070
     1
1070
   178
1070
     5
1070
   271
1070
     2
1070
   272
1070
     2
1070
   273
1070
     8
1070
   274
1070
     4
1070
   288
1070
     1
1070
   341
1005
7F
1002
}
  0
HATCH
  5
195
330
1F
100
AcDbEntity
  8
T
100
AcDbHatch
 10
0.0
 20
0.0
 30
0.0
210
0.0
220
0.0
230
1.0
  2
ANSI31
 70
     0
 71
     1
 91
        4
 92
        7
 72
     0
 73
     1
 93
        4
 10
176.8948912734616
 20
214.4445676501054
 10
175.3948912734617
 20
214.4445676501054
 10
175.3948912734617
 20
201.4445676501053
 10
176.8948912734616
 20
201.4445676501053
 97
        4
330
1B1
330
198
330
19C
330
196
 92
        7
 72
     0
 73
     1
 93
        4
 10
176.8948912734616
 20
218.9445676501054
 10
175.3948912734617
 20
218.9445676501054
 10
175.3948912734617
 20
214.4445676501054
 10
176.8948912734616
 20
214.4445676501054
 97
        4
330
1B0
330
198
330
1B1
330
196
 92
        7
 72
     0
 73
     1
 93
        4
 10
183.3948912734616
 20
218.9445676501054
 10
181.8948912734616
 20
218.9445676501054
 10
181.8948912734616
 20
214.4445676501054
 10
183.3948912734617
 20
214.4445676501054
 97
        4
330
1B0
330
197
330
1B1
330
1F4
 92
        7
 72
     1
 73
     1
 93
       10
 10
183.3948912734616
 20
214.4445676501054
 42
0.0
 10
181.8948912734617
 20
214.4445676501054
 42
0.0
 10
181.8948912734617
 20
201.4445676501054
 42
0.0
 10
185.2309762488864
 20
201.4445676501054
 42
0.0
 10
186.3315418824539
 20
203.5664945092445
 42
0.3020490392854588
 10
186.271757501163
 20
204.1168487620861
 42
0.0
 10
185.4666121251519
 20
205.0827530932259
 42
-0.2737185098216595
 10
185.3852095057917
 20
205.5854861457118
 42
0.0
 10
185.7221984831736
 20
206.4445676501054
 42
0.0
 10
183.3948912734617
 20
206.4445676501054
 42
0.0
 97
        6
330
1B1
330
197
330
19C
330
199
330
1F6
330
1F4
 75
     0
 76
     1
 52
90.0
 41
0.5
 77
     0
 78
     1
 53
135.0
 43
-77.59031650443501
 44
158.9192934216967
 45
-1.122532015133644
 46
-1.122532015133643
 79
     0
 47
0.0804717669706033
 98
        4
 10
176.4227922145299
 20
206.7585259934101
 10
176.4227922145299
 20
216.0932512581562
 10
182.540354720888
 20
216.0127793483961
 10
182.7013430375394
 20
211.5063595188291
  0
LINE
  5
196
102
{ACAD_REACTORS
330
195
330
1AE
102
}
330
1F
100
AcDbEntity
  8
FORM
100
AcDbLine
 10
176.8948912734616
 20
201.4445676501053
 30
0.0
 11
176.8948912734616
 21
222.4445676501054
 31
0.0
  0
LINE
  5
197
102
{ACAD_REACTORS
330
195
330
1AE
102
}
330
1F
100
AcDbEntity
  8
FORM
100
AcDbLine
 10
181.8948912734617
 20
201.4445676501054
 30
0.0
 11
181.8948912734617
 21
222.4445676501054
 31
0.0
  0
LINE
  5
198
102
{ACAD_REACTORS
330
195
102
}
330
1F
100
AcDbEntity
  8
0
 62
     6
100
AcDbLine
 10
175.3948912734617
 20
218.9445676501054
 30
0.0
 11
175.3948912734617
 21
201.4445676501053
 31
0.0
  0
LWPOLYLINE
  5
199
102
{ACAD_REACTORS
330
195
102
}
330
1F
100
AcDbEntity
  8
0
 62
     6
100
AcDbPolyline
 90
        6
 70
     0
 43
0.0
 10
185.2309762488864
 20
201.4445676501054
 10
186.3315418824539
 20
203.5664945092445
 42
0.3020490392854862
 10
186.271757501163
 20
204.1168487620861
 10
185.4666121251519
 20
205.0827530932259
 42
-0.2737185098216508
 10
185.3852095057917
 20
205.5854861457118
 10
185.7221984831737
 20
206.4445676501054
  0
LINE
  5
19A
330
1F
100
AcDbEntity
  8
CENTER
100
AcDbLine
 10
179.3948912734617
 20
198.4445676501054
 30
0.0
 11
179.3948912734617
 21
223.3959003777406
 31
0.0
  0
LINE
  5
19B
330
1F
100
AcDbEntity
  8
0
 62
     6
100
AcDbLine
 10
192.3948912734616
 20
206.4445676501054
 30
0.0
 11
192.3948912734616
 21
193.4445676501054
 31
0.0
  0
LINE
  5
19C
102
{ACAD_REACTORS
330
195
102
}
330
1F
100
AcDbEntity
  8
0
 62
     6
100
AcDbLine
 10
175.3948912734617
 20
201.4445676501053
 30
0.0
 11
186.6448912734616
 21
201.4445676501054
 31
0.0
  0
LEADER
  5
19D
330
1F
100
AcDbEntity
  8
DIMENSION
100
AcDbLeader
  3
STANDARD
 71
     0
 73
     0
 75
     1
 40
4.0
 41
2.857142857142856
 76
     3
 10
177.9644396501354
 20
201.1357804408782
 30
0.0
 10
173.7713646168971
 20
189.0010878945749
 30
0.0
 10
171.2713646168971
 20
189.0010878945749
 30
0.0
340
19E
213
0.0
223
2.0
233
0.0
1001
ACAD
1000
DSTYLE
1002
{
1070
     5
1000

1070
    41
1040
2.5
1070
    42
1040
0.0
1070
    43
1040
3.75
1070
    44
1040
2.0
1070
    73
1070
     0
1070
    74
1070
     0
1070
    77
1070
     1
1070
    78
1070
     8
1070
   140
1040
4.0
1070
   141
1040
2.5
1070
   143
1040
0.0394
1070
   147
1040
2.5
1070
   171
1070
     4
1070
   172
1070
     1
1070
   178
1070
     5
1070
   271
1070
     2
1070
   272
1070
     2
1070
   273
1070
     8
1070
   274
1070
     4
1070
   288
1070
     1
1002
}
  0
MTEXT
  5
19E
102
{ACAD_REACTORS
330
19D
102
}
330
1F
100
AcDbEntity
  8
DIMENSION
 62
     5
100
AcDbMText
 10
168.7713646168971
 20
189.501087894575
 30
0.0
 40
4.0
 41
0.0
 71
     9
 72
     1
  1
4
1001
ACAD
1000
MTEXTBEGIN
1070
    73
1070
     1
1070
    44
1040
1.0
1070
    74
1070
     0
1000
MTEXTEND
  0
LINE
  5
19F
330
1F
100
AcDbEntity
  8
0
100
AcDbLine
 10
176.3948912734617
 20
200.9445676501053
 30
0.0
 11
182.3948912734617
 21
200.9445676501054
 31
0.0
  0
LINE
  5
1A0
330
1F
100
AcDbEntity
  8
FORM
100
AcDbLine
 10
176.8948912734616
 20
200.9445676501053
 30
0.0
 11
181.8948912734617
 21
200.9445676501054
 31
0.0
  0
LINE
  5
1A1
330
1F
100
AcDbEntity
  8
FORM
100
AcDbLine
 10
181.8948912734617
 20
199.4445676501054
 30
0.0
 11
176.8948912734616
 21
199.4445676501054
 31
0.0
  0
LINE
  5
1A2
330
1F
100
AcDbEntity
  8
0
100
AcDbLine
 10
176.3948912734617
 20
200.9445676501053
 30
0.0
 11
176.3948912734617
 21
201.4445676501053
 31
0.0
  0
LINE
  5
1A3
330
1F
100
AcDbEntity
  8
FORM
100
AcDbLine
 10
176.8948912734616
 20
199.4445676501054
 30
0.0
 11
176.8948912734616
 21
200.9445676501053
 31
0.0
  0
LINE
  5
1A4
330
1F
100
AcDbEntity
  8
0
100
AcDbLine
 10
182.3948912734616
 20
200.9445676501054
 30
0.0
 11
182.3948912734616
 21
201.4445676501054
 31
0.0
  0
LINE
  5
1A5
330
1F
100
AcDbEntity
  8
FORM
100
AcDbLine
 10
181.8948912734617
 20
199.4445676501054
 30
0.0
 11
181.8948912734617
 21
200.9445676501054
 31
0.0
  0
LEADER
  5
1A6
330
1F
100
AcDbEntity
  8
DIMENSION
100
AcDbLeader
  3
STANDARD
 71
     0
 73
     0
 74
     0
 75
     1
 40
4.0
 41
2.666666666666666
 76
     3
 10
200.699324647148
 20
192.2839456041149
 30
0.0
 10
214.3435027684905
 20
181.386554648368
 30
0.0
 10
216.8435027684905
 20
181.386554648368
 30
0.0
340
1A7
213
0.0
223
-2.0
233
0.0
1001
ACAD
1000
DSTYLE
1002
{
1070
     5
1000

1070
    41
1040
2.5
1070
    42
1040
0.0
1070
    43
1040
3.75
1070
    44
1040
2.0
1070
    73
1070
     0
1070
    74
1070
     0
1070
    77
1070
     1
1070
    78
1070
     8
1070
   140
1040
4.0
1070
   141
1040
2.5
1070
   143
1040
0.0394
1070
   147
1040
0.0
1070
   171
1070
     4
1070
   172
1070
     1
1070
   178
1070
     5
1070
   271
1070
     2
1070
   272
1070
     2
1070
   273
1070
     8
1070
   274
1070
     4
1070
   288
1070
     1
1002
}
  0
MTEXT
  5
1A7
102
{ACAD_REACTORS
330
1A6
102
}
330
1F
100
AcDbEntity
  8
DIMENSION
 62
     5
100
AcDbMText
 10
216.8435027684905
 20
187.386554648368
 30
0.0
 40
4.0
 41
0.0
 71
     1
 72
     1
  1
2
1001
ACAD
1000
MTEXTBEGIN
1070
    73
1070
     1
1070
    44
1040
1.0
1070
    74
1070
     0
1000
MTEXTEND
  0
LINE
  5
1A8
330
1F
100
AcDbEntity
  8
0
 62
     6
100
AcDbLine
 10
186.6448912734616
 20
190.9445676501053
 30
0.0
 11
202.8948912734616
 21
190.9445676501053
 31
0.0
  0
LINE
  5
1A9
330
1F
100
AcDbEntity
  8
0
 62
     6
100
AcDbLine
 10
192.3948912734616
 20
193.4445676501054
 30
0.0
 11
205.8948912734616
 21
193.4445676501054
 31
0.0
  0
LINE
  5
1AA
330
1F
100
AcDbEntity
  8
0
 62
     6
100
AcDbLine
 10
186.6448912734616
 20
201.4445676501053
 30
0.0
 11
186.6448912734616
 21
190.9445676501053
 31
0.0
  0
LINE
  5
1AB
330
1F
100
AcDbEntity
  8
0
 62
     6
100
AcDbLine
 10
205.8948912734616
 20
193.4445676501054
 30
0.0
 11
205.8948912734616
 21
185.1945676501054
 31
0.0
  0
LINE
  5
1AC
330
1F
100
AcDbEntity
  8
0
 62
     6
100
AcDbLine
 10
202.8948912734616
 20
190.9445676501053
 30
0.0
 11
202.8948912734616
 21
185.1945676501054
 31
0.0
  0
LINE
  5
1AD
330
1F
100
AcDbEntity
  8
0
 62
     6
100
AcDbLine
 10
202.8948912734616
 20
185.1945676501054
 30
0.0
 11
205.8948912734616
 21
185.1945676501054
 31
0.0
  0
HATCH
  5
1AE
330
1F
100
AcDbEntity
  8
T
100
AcDbHatch
 10
0.0
 20
0.0
 30
0.0
210
0.0
220
0.0
230
1.0
  2
ANSI31
 70
     0
 71
     1
 91
        2
 92
        7
 72
     0
 73
     1
 93
        6
 10
176.8948912734616
 20
222.4445676501054
 10
176.1855105714216
 20
222.4445676501054
 10
175.9815713614192
 20
220.916356254978
 10
176.4989562772368
 20
219.6945128006704
 10
176.1795523779667
 20
218.9445676501054
 10
176.8948912734616
 20
218.9445676501054
 97
        4
330
1AF
330
1D9
330
1B0
330
196
 92
        7
 72
     0
 73
     1
 93
        6
 10
183.7423431940994
 20
221.2923082838099
 10
183.2233743645404
 20
222.4445676501054
 10
181.8948912734617
 20
222.4445676501054
 10
181.8948912734616
 20
218.9445676501054
 10
183.3815024840356
 20
218.9445676501054
 10
183.0838533878127
 20
219.8824881756904
 97
        4
330
1F2
330
1AF
330
197
330
1B0
 75
     0
 76
     1
 52
0.0
 41
0.25
 77
     0
 78
     1
 53
45.0
 43
-77.59031650443501
 44
158.9192934216967
 45
-0.5612660075668221
 46
0.5612660075668221
 79
     0
 47
0.0192343136735267
 98
        2
 10
176.6211915219136
 20
221.1951127909251
 10
182.1429812495754
 20
221.1181749796164
  0
LINE
  5
1AF
102
{ACAD_REACTORS
330
1AE
102
}
330
1F
100
AcDbEntity
  8
0
100
AcDbLine
 10
222.3948912734617
 20
222.4445676501054
 30
0.0
 11
172.8948912734617
 21
222.4445676501054
 31
0.0
  0
LINE
  5
1B0
102
{ACAD_REACTORS
330
195
330
1AE
102
}
330
1F
100
AcDbEntity
  8
0
 62
     6
100
AcDbLine
 10
183.3948912734616
 20
218.9445676501054
 30
0.0
 11
175.3948912734617
 21
218.9445676501054
 31
0.0
  0
LINE
  5
1B1
102
{ACAD_REACTORS
330
195
102
}
330
1F
100
AcDbEntity
  8
0
100
AcDbLine
 10
187.3296738821574
 20
214.4445676501053
 30
0.0
 11
174.3948912734617
 21
214.4445676501054
 31
0.0
  0
LINE
  5
1B2
330
1F
100
AcDbEntity
  8
0
100
AcDbLine
 10
182.8948912734617
 20
228.9445676501054
 30
0.0
 11
172.8948912734617
 21
228.9445676501054
 31
0.0
  0
LINE
  5
1B3
330
1F
100
AcDbEntity
  8
CENTER
100
AcDbLine
 10
193.8948912734617
 20
225.4445676501054
 30
0.0
 11
180.3223711351632
 21
225.4445676501054
 31
0.0
  0
LINE
  5
1B4
330
1F
100
AcDbEntity
  8
0
100
AcDbLine
 10
174.3948912734617
 20
236.4445676501054
 30
0.0
 11
218.3948912734616
 21
236.4445676501054
 31
0.0
  0
LINE
  5
1B5
330
1F
100
AcDbEntity
  8
0
100
AcDbLine
 10
174.3948912734617
 20
230.4445676501054
 30
0.0
 11
244.3948912734617
 21
230.4445676501054
 31
0.0
  0
LINE
  5
1B6
330
1F
100
AcDbEntity
  8
0
100
AcDbLine
 10
172.8948912734617
 20
228.4445676501054
 30
0.0
 11
244.3948912734617
 21
228.4445676501054
 31
0.0
  0
LINE
  5
1B7
330
1F
100
AcDbEntity
  8
0
100
AcDbLine
 10
184.3948912734617
 20
218.9445676501054
 30
0.0
 11
181.8948912734617
 21
218.9445676501054
 31
0.0
  0
LINE
  5
1B8
330
1F
100
AcDbEntity
  8
0
100
AcDbLine
 10
138.3066054931769
 20
220.4445676501054
 30
0.0
 11
145.306605493177
 21
225.4445676501054
 31
0.0
  0
LINE
  5
1B9
330
1F
100
AcDbEntity
  8
0
100
AcDbLine
 10
143.306605493177
 20
232.9445676501054
 30
0.0
 11
134.3066054931769
 21
232.9445676501054
 31
0.0
  0
LINE
  5
1BA
330
1F
100
AcDbEntity
  8
0
100
AcDbLine
 10
102.5892141888292
 20
215.4445676501054
 30
0.0
 11
130.3066054931767
 21
215.4445676501054
 31
0.0
  0
LINE
  5
1BB
330
1F
100
AcDbEntity
  8
0
100
AcDbLine
 10
107.806605493177
 20
207.4445676501054
 30
0.0
 11
130.3066054931767
 21
207.4445676501054
 31
0.0
  0
LINE
  5
1BC
330
1F
100
AcDbEntity
  8
0
100
AcDbLine
 10
104.306605493177
 20
234.4445676501054
 30
0.0
 11
124.306605493177
 21
234.4445676501054
 31
0.0
  0
LINE
  5
1BD
330
1F
100
AcDbEntity
  8
0
100
AcDbLine
 10
130.4353869615611
 20
218.4445676501054
 30
0.0
 11
119.3066054931767
 21
218.4445676501054
 31
0.0
  0
LINE
  5
1BE
330
1F
100
AcDbEntity
  8
0
100
AcDbLine
 10
124.306605493177
 20
216.4445676501054
 30
0.0
 11
119.3066054931767
 21
216.4445676501054
 31
0.0
  0
LINE
  5
1BF
330
1F
100
AcDbEntity
  8
CENTER
100
AcDbLine
 10
102.806605493177
 20
218.4445676501054
 30
0.0
 11
102.806605493177
 21
232.6839798479393
 31
0.0
  0
LINE
  5
1C0
330
1F
100
AcDbEntity
  8
0
100
AcDbLine
 10
119.3066054931767
 20
218.4445676501054
 30
0.0
 11
119.3066054931767
 21
215.4445676501054
 31
0.0
  0
LINE
  5
1C1
330
1F
100
AcDbEntity
  8
0
100
AcDbLine
 10
104.306605493177
 20
230.4445676501054
 30
0.0
 11
104.306605493177
 21
236.4445676501054
 31
0.0
  0
LINE
  5
1C2
330
1F
100
AcDbEntity
  8
0
100
AcDbLine
 10
138.3066054931769
 20
222.4445676501054
 30
0.0
 11
138.3066054931769
 21
214.4445676501054
 31
0.0
  0
LINE
  5
1C3
330
1F
100
AcDbEntity
  8
0
100
AcDbLine
 10
138.3066054931769
 20
220.4445676501054
 30
0.0
 11
130.4353869615611
 21
220.4445676501054
 31
0.0
  0
LINE
  5
1C4
330
1F
100
AcDbEntity
  8
0
100
AcDbLine
 10
130.3066054931767
 20
208.4445676501054
 30
0.0
 11
138.3066054931769
 21
208.4445676501054
 31
0.0
  0
LINE
  5
1C5
330
1F
100
AcDbEntity
  8
0
100
AcDbLine
 10
130.3066054931767
 20
207.4445676501054
 30
0.0
 11
130.3066054931767
 21
215.4445676501054
 31
0.0
  0
LINE
  5
1C6
330
1F
100
AcDbEntity
  8
0
100
AcDbLine
 10
124.306605493177
 20
218.4445676501054
 30
0.0
 11
124.306605493177
 21
215.4445676501054
 31
0.0
  0
LINE
  5
1C7
330
1F
100
AcDbEntity
  8
0
100
AcDbLine
 10
130.4353869615611
 20
220.4445676501054
 30
0.0
 11
130.4353869615611
 21
218.4445676501054
 31
0.0
  0
LINE
  5
1C8
330
1F
100
AcDbEntity
  8
0
100
AcDbLine
 10
129.306605493177
 20
218.4445676501054
 30
0.0
 11
129.306605493177
 21
215.4445676501054
 31
0.0
  0
LINE
  5
1C9
330
1F
100
AcDbEntity
  8
0
100
AcDbLine
 10
138.3066054931769
 20
214.4445676501054
 30
0.0
 11
138.3066054931769
 21
208.4445676501054
 31
0.0
  0
LINE
  5
1CA
330
1F
100
AcDbEntity
  8
0
100
AcDbLine
 10
137.306605493177
 20
218.9445676501054
 30
0.0
 11
137.306605493177
 21
208.4445676501054
 31
0.0
  0
LINE
  5
1CB
330
1F
100
AcDbEntity
  8
0
100
AcDbLine
 10
133.148562767073
 20
220.4445676501054
 30
0.0
 11
133.148562767073
 21
208.4445676501054
 31
0.0
  0
LINE
  5
1CC
330
1F
100
AcDbEntity
  8
0
100
AcDbLine
 10
138.3066054931769
 20
218.9445676501054
 30
0.0
 11
137.306605493177
 21
218.9445676501054
 31
0.0
  0
LINE
  5
1CD
330
1F
100
AcDbEntity
  8
0
100
AcDbLine
 10
124.306605493177
 20
236.4445676501054
 30
0.0
 11
124.306605493177
 21
230.4445676501054
 31
0.0
  0
LINE
  5
1CE
330
1F
100
AcDbEntity
  8
0
100
AcDbLine
 10
138.3066054931769
 20
230.4445676501054
 30
0.0
 11
138.3066054931769
 21
228.4445676501054
 31
0.0
  0
LINE
  5
1CF
330
1F
100
AcDbEntity
  8
0
100
AcDbLine
 10
134.3066054931769
 20
236.4445676501054
 30
0.0
 11
134.3066054931769
 21
232.9445676501054
 31
0.0
  0
LEADER
  5
1D0
330
1F
100
AcDbEntity
  8
DIMENSION
100
AcDbLeader
  3
STANDARD
 71
     0
 73
     0
 75
     1
 40
4.0
 41
2.666666666666666
 76
     3
 10
178.14320838332
 20
210.3504012608434
 30
0.0
 10
169.7713646168971
 20
217.2797673640084
 30
0.0
 10
167.2713646168971
 20
217.2797673640084
 30
0.0
340
1D1
213
0.0
223
2.0
233
0.0
1001
ACAD
1000
DSTYLE
1002
{
1070
     5
1000

1070
    41
1040
2.5
1070
    42
1040
0.0
1070
    43
1040
3.75
1070
    44
1040
2.0
1070
    73
1070
     0
1070
    74
1070
     0
1070
    77
1070
     1
1070
    78
1070
     8
1070
   140
1040
4.0
1070
   141
1040
2.5
1070
   143
1040
0.0394
1070
   147
1040
2.5
1070
   171
1070
     4
1070
   172
1070
     1
1070
   178
1070
     5
1070
   271
1070
     2
1070
   272
1070
     2
1070
   273
1070
     8
1070
   274
1070
     4
1070
   288
1070
     1
1002
}
  0
MTEXT
  5
1D1
102
{ACAD_REACTORS
330
1D0
102
}
330
1F
100
AcDbEntity
  8
DIMENSION
 62
     5
100
AcDbMText
 10
164.7713646168971
 20
217.7797673640084
 30
0.0
 40
4.0
 41
0.0
 71
     9
 72
     1
  1
\A1;3
1001
ACAD
1000
MTEXTBEGIN
1070
    73
1070
     1
1070
    44
1040
1.0
1070
    74
1070
     0
1000
MTEXTEND
  0
LINE
  5
1D2
330
1F
100
AcDbEntity
  8
0
100
AcDbLine
 10
160.306605493177
 20
232.4445676501054
 30
0.0
 11
143.306605493177
 21
232.4445676501054
 31
0.0
  0
LINE
  5
1D3
330
1F
100
AcDbEntity
  8
0
100
AcDbLine
 10
160.306605493177
 20
236.4445676501054
 30
0.0
 11
143.306605493177
 21
236.4445676501054
 31
0.0
  0
LINE
  5
1D4
330
1F
100
AcDbEntity
  8
0
100
AcDbLine
 10
145.306605493177
 20
225.4445676501054
 30
0.0
 11
160.306605493177
 21
227.4445676501054
 31
0.0
  0
LINE
  5
1D5
330
1F
100
AcDbEntity
  8
0
100
AcDbLine
 10
146.3066054931769
 20
232.4445676501054
 30
0.0
 11
146.3066054931769
 21
230.4445676501054
 31
0.0
  0
LINE
  5
1D6
330
1F
100
AcDbEntity
  8
0
100
AcDbLine
 10
143.306605493177
 20
236.4445676501054
 30
0.0
 11
143.306605493177
 21
232.4445676501054
 31
0.0
  0
LINE
  5
1D7
330
1F
100
AcDbEntity
  8
0
100
AcDbLine
 10
160.306605493177
 20
236.4445676501054
 30
0.0
 11
160.306605493177
 21
227.4445676501054
 31
0.0
  0
LINE
  5
1D8
330
1F
100
AcDbEntity
  8
0
100
AcDbLine
 10
153.306605493177
 20
236.4445676501054
 30
0.0
 11
160.306605493177
 21
236.4445676501054
 31
0.0
  0
LWPOLYLINE
  5
1D9
102
{ACAD_REACTORS
330
1AE
102
}
330
1F
100
AcDbEntity
  8
FORM
100
AcDbPolyline
 90
        4
 70
     0
 43
0.0
 10
176.1855105714215
 20
222.4445676501054
 10
175.9815713614192
 20
220.916356254978
 10
176.4989562772368
 20
219.6945128006704
 10
176.1795523779667
 20
218.9445676501054
  0
LINE
  5
1DA
330
1F
100
AcDbEntity
  8
FORM
100
AcDbLine
 10
181.3948912734617
 20
218.9445676501054
 30
0.0
 11
181.3948912734617
 21
222.4445676501054
 31
0.0
  0
LINE
  5
1DB
330
1F
100
AcDbEntity
  8
FORM
100
AcDbLine
 10
181.3948912734617
 20
218.9445676501054
 30
0.0
 11
181.3948912734617
 21
222.4445676501054
 31
0.0
  0
LINE
  5
1DC
330
1F
100
AcDbEntity
  8
FORM
100
AcDbLine
 10
177.3948912734617
 20
218.9445676501054
 30
0.0
 11
177.3948912734617
 21
222.4445676501054
 31
0.0
  0
LINE
  5
1DD
330
1F
100
AcDbEntity
  8
FORM
100
AcDbLine
 10
177.3948912734617
 20
218.9445676501054
 30
0.0
 11
177.3948912734617
 21
222.4445676501054
 31
0.0
  0
LINE
  5
1DE
330
1F
100
AcDbEntity
  8
0
100
AcDbLine
 10
172.8948912734617
 20
222.4445676501054
 30
0.0
 11
172.8948912734617
 21
220.4445676501054
 31
0.0
  0
LINE
  5
1DF
330
1F
100
AcDbEntity
  8
FORM
100
AcDbLine
 10
176.8948912734616
 20
218.9445676501054
 30
0.0
 11
181.8948912734617
 21
218.9445676501054
 31
0.0
  0
LINE
  5
1E0
330
1F
100
AcDbEntity
  8
FORM
100
AcDbLine
 10
176.8948912734616
 20
218.9445676501054
 30
0.0
 11
181.8948912734617
 21
218.9445676501054
 31
0.0
  0
LINE
  5
1E1
330
1F
100
AcDbEntity
  8
0
100
AcDbLine
 10
176.8948912734616
 20
218.9445676501054
 30
0.0
 11
175.3948912734617
 21
218.9445676501054
 31
0.0
  0
LINE
  5
1E2
330
1F
100
AcDbEntity
  8
0
100
AcDbLine
 10
176.1813484333143
 20
220.4445676501054
 30
0.0
 11
174.3948912734617
 21
220.4445676501054
 31
0.0
  0
LINE
  5
1E3
330
1F
100
AcDbEntity
  8
0
100
AcDbLine
 10
175.3948912734617
 20
218.9445676501054
 30
0.0
 11
175.3948912734617
 21
220.4445676501054
 31
0.0
  0
LINE
  5
1E4
330
1F
100
AcDbEntity
  8
0
100
AcDbLine
 10
174.3948912734617
 20
220.4445676501054
 30
0.0
 11
172.8948912734617
 21
220.4445676501054
 31
0.0
  0
LINE
  5
1E5
330
1F
100
AcDbEntity
  8
0
100
AcDbLine
 10
176.1187857679513
 20
221.9445676501054
 30
0.0
 11
172.8948912734617
 21
221.9445676501054
 31
0.0
  0
LINE
  5
1E6
330
1F
100
AcDbEntity
  8
0
100
AcDbLine
 10
174.3948912734617
 20
214.4445676501054
 30
0.0
 11
174.3948912734617
 21
220.4445676501054
 31
0.0
  0
LINE
  5
1E7
330
1F
100
AcDbEntity
  8
0
100
AcDbLine
 10
174.3948912734617
 20
230.4445676501054
 30
0.0
 11
174.3948912734617
 21
236.4445676501054
 31
0.0
  0
LINE
  5
1E8
330
1F
100
AcDbEntity
  8
FORM
100
AcDbLine
 10
177.3948912734617
 20
222.4445676501054
 30
0.0
 11
181.3948912734617
 21
222.4445676501054
 31
0.0
  0
LINE
  5
1E9
330
1F
100
AcDbEntity
  8
0
100
AcDbLine
 10
174.3948912734617
 20
222.4445676501054
 30
0.0
 11
174.3948912734617
 21
228.4445676501054
 31
0.0
  0
LINE
  5
1EA
330
1F
100
AcDbEntity
  8
0
100
AcDbLine
 10
172.8948912734617
 20
230.4445676501054
 30
0.0
 11
172.8948912734617
 21
228.4445676501054
 31
0.0
  0
LINE
  5
1EB
330
1F
100
AcDbEntity
  8
0
100
AcDbLine
 10
174.3948912734617
 20
230.4445676501054
 30
0.0
 11
172.8948912734617
 21
230.4445676501054
 31
0.0
  0
LINE
  5
1EC
330
1F
100
AcDbEntity
  8
0
100
AcDbLine
 10
180.8948912734617
 20
230.4445676501054
 30
0.0
 11
180.8948912734617
 21
228.9445676501054
 31
0.0
  0
LINE
  5
1ED
330
1F
100
AcDbEntity
  8
0
100
AcDbLine
 10
227.3948912734617
 20
232.9445676501054
 30
0.0
 11
218.3948912734616
 21
232.9445676501054
 31
0.0
  0
LINE
  5
1EE
330
1F
100
AcDbEntity
  8
0
100
AcDbLine
 10
222.3948912734617
 20
220.4445676501054
 30
0.0
 11
229.3948912734617
 21
225.4445676501054
 31
0.0
  0
LINE
  5
1EF
330
1F
100
AcDbEntity
  8
0
100
AcDbLine
 10
191.8948912734617
 20
207.4445676501054
 30
0.0
 11
214.3948912734616
 21
207.4445676501054
 31
0.0
  0
LINE
  5
1F0
330
1F
100
AcDbEntity
  8
0
100
AcDbLine
 10
188.3948912734617
 20
234.4445676501054
 30
0.0
 11
208.3948912734618
 21
234.4445676501054
 31
0.0
  0
LINE
  5
1F1
330
1F
100
AcDbEntity
  8
0
100
AcDbLine
 10
186.6774999691138
 20
215.4445676501054
 30
0.0
 11
214.3948912734616
 21
215.4445676501054
 31
0.0
  0
LWPOLYLINE
  5
1F2
102
{ACAD_REACTORS
330
1AE
102
}
330
1F
100
AcDbEntity
  8
FORM
100
AcDbPolyline
 90
        4
 70
     0
 43
0.0
 10
183.2233743645404
 20
222.4445676501054
 10
183.7423431940994
 20
221.2923082838099
 10
183.0838533878127
 20
219.8824881756904
 10
183.3815024840357
 20
218.9445676501054
  0
LINE
  5
1F3
330
1F
100
AcDbEntity
  8
CENTER
100
AcDbLine
 10
186.8948912734617
 20
218.4445676501054
 30
0.0
 11
186.8948912734617
 21
232.6839798479393
 31
0.0
  0
LINE
  5
1F4
102
{ACAD_REACTORS
330
195
102
}
330
1F
100
AcDbEntity
  8
0
 62
     6
100
AcDbLine
 10
183.3948912734616
 20
206.4445676501054
 30
0.0
 11
183.3948912734616
 21
218.9445676501054
 31
0.0
  0
LINE
  5
1F5
330
1F
100
AcDbEntity
  8
0
100
AcDbLine
 10
191.8948912734617
 20
207.4445676501054
 30
0.0
 11
184.3948912734617
 21
218.9445676501054
 31
0.0
  0
LINE
  5
1F6
102
{ACAD_REACTORS
330
195
102
}
330
1F
100
AcDbEntity
  8
0
 62
     6
100
AcDbLine
 10
183.3948912734616
 20
206.4445676501054
 30
0.0
 11
192.3948912734616
 21
206.4445676501054
 31
0.0
  0
LINE
  5
1F7
330
1F
100
AcDbEntity
  8
0
100
AcDbLine
 10
188.4683082583849
 20
215.4445676501054
 30
0.0
 11
185.2074386931677
 21
220.4445676501054
 31
0.0
  0
LINE
  5
1F8
330
1F
100
AcDbEntity
  8
0
100
AcDbLine
 10
185.2074386931677
 20
220.4445676501054
 30
0.0
 11
183.3463858925582
 21
220.4445676501054
 31
0.0
  0
LINE
  5
1F9
330
1F
100
AcDbEntity
  8
0
100
AcDbLine
 10
188.3948912734617
 20
230.4445676501054
 30
0.0
 11
188.3948912734617
 21
236.4445676501054
 31
0.0
  0
CIRCLE
  5
1FA
330
1F
100
AcDbEntity
  8
0
100
AcDbCircle
 10
186.8948912734617
 20
225.4445676501054
 30
0.0
 40
2.0
  0
LINE
  5
1FB
330
1F
100
AcDbEntity
  8
0
100
AcDbLine
 10
182.8948912734617
 20
228.4445676501054
 30
0.0
 11
182.8948912734617
 21
230.4445676501054
 31
0.0
  0
LINE
  5
1FC
330
1F
100
AcDbEntity
  8
0
100
AcDbLine
 10
185.8948912734617
 20
230.4445676501054
 30
0.0
 11
185.8948912734617
 21
228.4445676501054
 31
0.0
  0
LINE
  5
1FD
330
1F
100
AcDbEntity
  8
0
100
AcDbLine
 10
222.3948912734617
 20
222.4445676501054
 30
0.0
 11
222.3948912734617
 21
214.4445676501054
 31
0.0
  0
LINE
  5
1FE
330
1F
100
AcDbEntity
  8
0
100
AcDbLine
 10
214.5236727418459
 20
218.4445676501054
 30
0.0
 11
203.3948912734617
 21
218.4445676501054
 31
0.0
  0
LINE
  5
1FF
330
1F
100
AcDbEntity
  8
0
100
AcDbLine
 10
208.3948912734618
 20
216.4445676501054
 30
0.0
 11
203.3948912734617
 21
216.4445676501054
 31
0.0
  0
LINE
  5
200
330
1F
100
AcDbEntity
  8
0
100
AcDbLine
 10
203.3948912734617
 20
218.4445676501054
 30
0.0
 11
203.3948912734617
 21
215.4445676501054
 31
0.0
  0
LINE
  5
201
330
1F
100
AcDbEntity
  8
0
100
AcDbLine
 10
208.3948912734618
 20
218.4445676501054
 30
0.0
 11
208.3948912734618
 21
215.4445676501054
 31
0.0
  0
LINE
  5
202
330
1F
100
AcDbEntity
  8
0
100
AcDbLine
 10
222.3948912734617
 20
214.4445676501054
 30
0.0
 11
222.3948912734617
 21
208.4445676501054
 31
0.0
  0
LINE
  5
203
330
1F
100
AcDbEntity
  8
0
100
AcDbLine
 10
214.3948912734616
 20
207.4445676501054
 30
0.0
 11
214.3948912734616
 21
215.4445676501054
 31
0.0
  0
LINE
  5
204
330
1F
100
AcDbEntity
  8
0
100
AcDbLine
 10
217.2368485473577
 20
220.4445676501054
 30
0.0
 11
217.2368485473577
 21
208.4445676501054
 31
0.0
  0
LINE
  5
205
330
1F
100
AcDbEntity
  8
0
100
AcDbLine
 10
221.3948912734617
 20
218.9445676501054
 30
0.0
 11
221.3948912734617
 21
208.4445676501054
 31
0.0
  0
LINE
  5
206
330
1F
100
AcDbEntity
  8
0
100
AcDbLine
 10
214.3948912734616
 20
208.4445676501054
 30
0.0
 11
222.3948912734617
 21
208.4445676501054
 31
0.0
  0
LINE
  5
207
330
1F
100
AcDbEntity
  8
0
100
AcDbLine
 10
222.3948912734617
 20
220.4445676501054
 30
0.0
 11
214.5236727418459
 21
220.4445676501054
 31
0.0
  0
LINE
  5
208
330
1F
100
AcDbEntity
  8
0
100
AcDbLine
 10
214.5236727418459
 20
220.4445676501054
 30
0.0
 11
214.5236727418459
 21
218.4445676501054
 31
0.0
  0
LINE
  5
209
330
1F
100
AcDbEntity
  8
0
100
AcDbLine
 10
213.3948912734617
 20
218.4445676501054
 30
0.0
 11
213.3948912734617
 21
215.4445676501054
 31
0.0
  0
LINE
  5
20A
330
1F
100
AcDbEntity
  8
0
100
AcDbLine
 10
222.3948912734617
 20
218.9445676501054
 30
0.0
 11
221.3948912734617
 21
218.9445676501054
 31
0.0
  0
LINE
  5
20B
330
1F
100
AcDbEntity
  8
0
100
AcDbLine
 10
208.3948912734618
 20
236.4445676501054
 30
0.0
 11
208.3948912734618
 21
230.4445676501054
 31
0.0
  0
LINE
  5
20C
330
1F
100
AcDbEntity
  8
0
100
AcDbLine
 10
222.3948912734617
 20
230.4445676501054
 30
0.0
 11
222.3948912734617
 21
228.4445676501054
 31
0.0
  0
LINE
  5
20D
330
1F
100
AcDbEntity
  8
0
100
AcDbLine
 10
218.3948912734616
 20
236.4445676501054
 30
0.0
 11
218.3948912734616
 21
232.9445676501054
 31
0.0
  0
LINE
  5
20E
330
1F
100
AcDbEntity
  8
0
100
AcDbLine
 10
229.3948912734617
 20
225.4445676501054
 30
0.0
 11
244.3948912734617
 21
227.4445676501054
 31
0.0
  0
LINE
  5
20F
330
1F
100
AcDbEntity
  8
0
100
AcDbLine
 10
244.3948912734617
 20
232.4445676501054
 30
0.0
 11
227.3948912734617
 21
232.4445676501054
 31
0.0
  0
LINE
  5
210
330
1F
100
AcDbEntity
  8
0
100
AcDbLine
 10
244.3948912734617
 20
236.4445676501054
 30
0.0
 11
227.3948912734617
 21
236.4445676501054
 31
0.0
  0
LINE
  5
211
330
1F
100
AcDbEntity
  8
0
100
AcDbLine
 10
237.3948912734618
 20
236.4445676501054
 30
0.0
 11
244.3948912734617
 21
236.4445676501054
 31
0.0
  0
LINE
  5
212
330
1F
100
AcDbEntity
  8
0
100
AcDbLine
 10
230.3948912734617
 20
232.4445676501054
 30
0.0
 11
230.3948912734617
 21
230.4445676501054
 31
0.0
  0
LINE
  5
213
330
1F
100
AcDbEntity
  8
0
100
AcDbLine
 10
227.3948912734617
 20
236.4445676501054
 30
0.0
 11
227.3948912734617
 21
232.4445676501054
 31
0.0
  0
LINE
  5
214
330
1F
100
AcDbEntity
  8
0
100
AcDbLine
 10
244.3948912734617
 20
236.4445676501054
 30
0.0
 11
244.3948912734617
 21
227.4445676501054
 31
0.0
  0
TEXT
  5
2BC
330
1F
100
AcDbEntity
  8
0
100
AcDbText
 10
117.3203227783737
 20
170.5121521000018
 30
0.0
 40
4.0
  1
1.Направляющая 1H0898016A(right)
100
AcDbText
  0
TEXT
  5
2BD
330
1F
100
AcDbEntity
  8
0
100
AcDbText
 10
117.3203227783737
 20
163.8454854333351
 30
0.0
 40
4.0
  1
или 1H0898015(left).
100
AcDbText
  0
TEXT
  5
2BE
330
1F
100
AcDbEntity
  8
0
100
AcDbText
 10
117.3203227783737
 20
157.1788187666684
 30
0.0
 40
4.0
  1
2.Соединитель (fastener)
100
AcDbText
  0
TEXT
  5
2BF
330
1F
100
AcDbEntity
  8
0
100
AcDbText
 10
117.3203227783737
 20
150.5121521000018
 30
0.0
 40
4.0
  1
357877270(right) или 
100
AcDbText
  0
TEXT
  5
2C0
330
1F
100
AcDbEntity
  8
0
100
AcDbText
 10
117.3203227783737
 20
143.8454854333351
 30
0.0
 40
4.0
  1
357877269(left).
100
AcDbText
  0
TEXT
  5
2C1
330
1F
100
AcDbEntity
  8
0
100
AcDbText
 10
117.3203227783737
 20
137.1788187666685
 30
0.0
 40
4.0
  1
3.Ось.
100
AcDbText
  0
TEXT
  5
2C2
330
1F
100
AcDbEntity
  8
0
100
AcDbText
 10
117.3203227783737
 20
130.5121521000018
 30
0.0
 40
4.0
  1
4.Стопорная шайба.
100
AcDbText
  0
TEXT
  5
2F6
330
1F
100
AcDbEntity
  8
0
100
AcDbText
 10
72.31466681427377
 20
259.561582930438
 30
0.0
 40
4.0
  1
Этот эскиз для правой направляющей(той,что
100
AcDbText
  0
TEXT
  5
2F7
330
1F
100
AcDbEntity
  8
0
100
AcDbText
 10
72.31466681427377
 20
252.7044400732951
 30
0.0
 40
4.0
  1
над пассажиром).Для левой зеркальное отображе-
100
AcDbText
  0
TEXT
  5
2F8
330
1F
100
AcDbEntity
  8
0
100
AcDbText
 10
72.31466681427377
 20
245.8472972161522
 30
0.0
 40
4.0
  1
ние.
100
AcDbText
  0
ENDSEC
  0
SECTION
  2
OBJECTS
  0
DICTIONARY
  5
C
330
0
100
AcDbDictionary
  3
ACAD_GROUP
350
D
  3
ACAD_PLOTSTYLENAME
350
E
  3
ACAD_MLINESTYLE
350
17
  3
ACAD_PLOTSETTINGS
350
19
  3
ACAD_LAYOUT
350
1A
  3
ACDBVARIABLEDICTIONARY
350
2F9
  3
ACDBHEADERROUNDTRIPXREC
350
2FC
  0
DICTIONARY
  5
31F
330
1F
100
AcDbDictionary
280
     1
  3
ACAD_LAYOUTSELFREF
360
320
  0
DICTIONARY
  5
31D
330
1B
100
AcDbDictionary
280
     1
  3
ACAD_LAYOUTSELFREF
360
31E
  0
DICTIONARY
  5
D
102
{ACAD_REACTORS
330
C
102
}
330
C
100
AcDbDictionary
  0
ACDBDICTIONARYWDFLT
  5
E
102
{ACAD_REACTORS
330
C
102
}
330
C
100
AcDbDictionary
281
     1
  3
Normal
350
F
100
AcDbDictionaryWithDefault
340
F
  0
DICTIONARY
  5
17
102
{ACAD_REACTORS
330
C
102
}
330
C
100
AcDbDictionary
  3
STANDARD
350
18
  0
DICTIONARY
  5
19
102
{ACAD_REACTORS
330
C
102
}
330
C
100
AcDbDictionary
  0
DICTIONARY
  5
1A
102
{ACAD_REACTORS
330
C
102
}
330
C
100
AcDbDictionary
  0
DICTIONARY
  5
2F9
102
{ACAD_REACTORS
330
C
102
}
330
C
100
AcDbDictionary
  3
SORTENTS
350
2FA
  0
DICTIONARY
  5
2FC
102
{ACAD_REACTORS
330
C
102
}
330
C
100
AcDbDictionary
  3
TSTACKALIGN
350
2FD
  3
TSTACKSIZE
350
2FE
  3
HYPERLINKBASE
350
2FF
  3
STYLESHEET
350
300
  3
LAYOUTDICT
350
301
  3
PLOTSETDICT
350
302
  3
PLOTSTYLNAMDICT
350
303
  3
LWETCUNION
350
304
  3
INSUNITS
350
305
  3
CEPSNTYPE
350
306
  3
FINGERPRINTGUID
350
307
  3
VERSIONGUID
350
308
  3
PSVPSCALE
350
309
  3
DIMSTYLEDATA
350
30A
  3
PUCSORTHOREF
350
30B
  3
PUCSORTHOVIEW
350
30C
  3
PUCSBASE
350
30D
  3
PUCSORGTOP
350
30E
  3
PUCSORGBOTTOM
350
30F
  3
PUCSORGLEFT
350
310
  3
PUCSORGRIGHT
350
311
  3
PUCSORGFRONT
350
312
  3
PUCSORGBACK
350
313
  3
UCSORTHOREF
350
314
  3
UCSORTHOVIEW
350
315
  3
UCSBASE
350
316
  3
UCSORGTOP
350
317
  3
UCSORGBOTTOM
350
318
  3
UCSORGLEFT
350
319
  3
UCSORGRIGHT
350
31A
  3
UCSORGFRONT
350
31B
  3
UCSORGBACK
350
31C
  0
XRECORD
  5
320
102
{ACAD_REACTORS
330
31F
102
}
330
31F
100
AcDbXrecord
340
1F
  0
XRECORD
  5
31E
102
{ACAD_REACTORS
330
31D
102
}
330
31D
100
AcDbXrecord
340
1B
  0
ACDBPLACEHOLDER
  5
F
102
{ACAD_REACTORS
330
E
102
}
330
E
100
AcDbPlaceHolder
280
     0
  0
MLINESTYLE
  5
18
102
{ACAD_REACTORS
330
17
102
}
330
17
100
AcDbMlineStyle
  2
STANDARD
 70
     0
  3

 62
   256
 51
90.0
 52
90.0
 71
     2
 49
0.5
 62
   256
  6
BYLAYER
 49
-0.5
 62
   256
  6
BYLAYER
  0
DICTIONARYVAR
  5
2FA
102
{ACAD_REACTORS
330
2F9
102
}
330
2F9
100
DictionaryVariables
280
     0
  1
96
  0
XRECORD
  5
2FD
102
{ACAD_REACTORS
330
2FC
102
}
330
2FC
100
AcDbXrecord
 90
        1
  0
XRECORD
  5
2FE
102
{ACAD_REACTORS
330
2FC
102
}
330
2FC
100
AcDbXrecord
 90
       70
  0
XRECORD
  5
2FF
102
{ACAD_REACTORS
330
2FC
102
}
330
2FC
100
AcDbXrecord
  1

  0
XRECORD
  5
300
102
{ACAD_REACTORS
330
2FC
102
}
330
2FC
100
AcDbXrecord
  1

  0
XRECORD
  5
301
102
{ACAD_REACTORS
330
2FC
102
}
330
2FC
100
AcDbXrecord
340
1A
  0
XRECORD
  5
302
102
{ACAD_REACTORS
330
2FC
102
}
330
2FC
100
AcDbXrecord
340
19
  0
XRECORD
  5
303
102
{ACAD_REACTORS
330
2FC
102
}
330
2FC
100
AcDbXrecord
340
E
  0
XRECORD
  5
304
102
{ACAD_REACTORS
330
2FC
102
}
330
2FC
100
AcDbXrecord
 90
    10781
  0
XRECORD
  5
305
102
{ACAD_REACTORS
330
2FC
102
}
330
2FC
100
AcDbXrecord
 90
        4
  0
XRECORD
  5
306
102
{ACAD_REACTORS
330
2FC
102
}
330
2FC
100
AcDbXrecord
 90
        0
  0
XRECORD
  5
307
102
{ACAD_REACTORS
330
2FC
102
}
330
2FC
100
AcDbXrecord
  1
{24ED3C5B-50CF-40C5-ADBC-7C56F2684BDE}
  0
XRECORD
  5
308
102
{ACAD_REACTORS
330
2FC
102
}
330
2FC
100
AcDbXrecord
  1
{21359C13-CA0C-4AE4-9F30-13BB9BD7EF8D}
  0
XRECORD
  5
309
102
{ACAD_REACTORS
330
2FC
102
}
330
2FC
100
AcDbXrecord
 40
0.0
  0
XRECORD
  5
30A
102
{ACAD_REACTORS
330
2FC
102
}
330
2FC
100
AcDbXrecord
1000
DSTYLE
1002
{
1070
   278
 70
    44
1002
}
  0
XRECORD
  5
30B
102
{ACAD_REACTORS
330
2FC
102
}
330
2FC
100
AcDbXrecord
340
0
  0
XRECORD
  5
30C
102
{ACAD_REACTORS
330
2FC
102
}
330
2FC
100
AcDbXrecord
 70
     0
  0
XRECORD
  5
30D
102
{ACAD_REACTORS
330
2FC
102
}
330
2FC
100
AcDbXrecord
340
0
  0
XRECORD
  5
30E
102
{ACAD_REACTORS
330
2FC
102
}
330
2FC
100
AcDbXrecord
 10
0.0
 20
0.0
 30
0.0
  0
XRECORD
  5
30F
102
{ACAD_REACTORS
330
2FC
102
}
330
2FC
100
AcDbXrecord
 10
0.0
 20
0.0
 30
0.0
  0
XRECORD
  5
310
102
{ACAD_REACTORS
330
2FC
102
}
330
2FC
100
AcDbXrecord
 10
0.0
 20
0.0
 30
0.0
  0
XRECORD
  5
311
102
{ACAD_REACTORS
330
2FC
102
}
330
2FC
100
AcDbXrecord
 10
0.0
 20
0.0
 30
0.0
  0
XRECORD
  5
312
102
{ACAD_REACTORS
330
2FC
102
}
330
2FC
100
AcDbXrecord
 10
0.0
 20
0.0
 30
0.0
  0
XRECORD
  5
313
102
{ACAD_REACTORS
330
2FC
102
}
330
2FC
100
AcDbXrecord
 10
0.0
 20
0.0
 30
0.0
  0
XRECORD
  5
314
102
{ACAD_REACTORS
330
2FC
102
}
330
2FC
100
AcDbXrecord
340
0
  0
XRECORD
  5
315
102
{ACAD_REACTORS
330
2FC
102
}
330
2FC
100
AcDbXrecord
 70
     0
  0
XRECORD
  5
316
102
{ACAD_REACTORS
330
2FC
102
}
330
2FC
100
AcDbXrecord
340
0
  0
XRECORD
  5
317
102
{ACAD_REACTORS
330
2FC
102
}
330
2FC
100
AcDbXrecord
 10
0.0
 20
0.0
 30
0.0
  0
XRECORD
  5
318
102
{ACAD_REACTORS
330
2FC
102
}
330
2FC
100
AcDbXrecord
 10
0.0
 20
0.0
 30
0.0
  0
XRECORD
  5
319
102
{ACAD_REACTORS
330
2FC
102
}
330
2FC
100
AcDbXrecord
 10
0.0
 20
0.0
 30
0.0
  0
XRECORD
  5
31A
102
{ACAD_REACTORS
330
2FC
102
}
330
2FC
100
AcDbXrecord
 10
0.0
 20
0.0
 30
0.0
  0
XRECORD
  5
31B
102
{ACAD_REACTORS
330
2FC
102
}
330
2FC
100
AcDbXrecord
 10
0.0
 20
0.0
 30
0.0
  0
XRECORD
  5
31C
102
{ACAD_REACTORS
330
2FC
102
}
330
2FC
100
AcDbXrecord
 10
0.0
 20
0.0
 30
0.0
  0
ENDSEC
  0
EOF
