  0
SECTION
  2
HEADER
  9
$ACADVER
  1
AC1014
  9
$ACADMAINTVER
 70
     9
  9
$DWGCODEPAGE
  3
ANSI_1251
  9
$INSBASE
 10
0.0
 20
0.0
 30
0.0
  9
$EXTMIN
 10
50.9648648145741
 20
135.6108869752284
 30
0.0
  9
$EXTMAX
 10
202.7709332127595
 20
241.4157561986536
 30
0.0
  9
$LIMMIN
 10
0.0
 20
0.0
  9
$LIMMAX
 10
420.0
 20
297.0
  9
$ORTHOMODE
 70
     0
  9
$REGENMODE
 70
     1
  9
$FILLMODE
 70
     1
  9
$QTEXTMODE
 70
     0
  9
$MIRRTEXT
 70
     1
  9
$DRAGMODE
 70
     2
  9
$LTSCALE
 40
1.0
  9
$OSMODE
 70
    37
  9
$ATTMODE
 70
     1
  9
$TEXTSIZE
 40
2.5
  9
$TRACEWID
 40
1.0
  9
$TEXTSTYLE
  7
STANDARD
  9
$CLAYER
  8
DIMENSION
  9
$CELTYPE
  6
BYLAYER
  9
$CECOLOR
 62
   256
  9
$CELTSCALE
 40
1.0
  9
$DELOBJ
 70
     1
  9
$DISPSILH
 70
     0
  9
$DIMSCALE
 40
1.0
  9
$DIMASZ
 40
2.5
  9
$DIMEXO
 40
0.0
  9
$DIMDLI
 40
3.75
  9
$DIMRND
 40
0.0
  9
$DIMDLE
 40
0.0
  9
$DIMEXE
 40
2.0
  9
$DIMTP
 40
0.0
  9
$DIMTM
 40
0.0
  9
$DIMTXT
 40
2.5
  9
$DIMCEN
 40
2.5
  9
$DIMTSZ
 40
0.0
  9
$DIMTOL
 70
     0
  9
$DIMLIM
 70
     0
  9
$DIMTIH
 70
     0
  9
$DIMTOH
 70
     0
  9
$DIMSE1
 70
     0
  9
$DIMSE2
 70
     0
  9
$DIMTAD
 70
     1
  9
$DIMZIN
 70
     8
  9
$DIMBLK
  1

  9
$DIMASO
 70
     1
  9
$DIMSHO
 70
     1
  9
$DIMPOST
  1

  9
$DIMAPOST
  1

  9
$DIMALT
 70
     0
  9
$DIMALTD
 70
     3
  9
$DIMALTF
 40
0.03937007874016
  9
$DIMLFAC
 40
1.0
  9
$DIMTOFL
 70
     1
  9
$DIMTVP
 40
0.0
  9
$DIMTIX
 70
     0
  9
$DIMSOXD
 70
     0
  9
$DIMSAH
 70
     0
  9
$DIMBLK1
  1

  9
$DIMBLK2
  1

  9
$DIMSTYLE
  2
ISO-25
  9
$DIMCLRD
 70
     0
  9
$DIMCLRE
 70
     0
  9
$DIMCLRT
 70
     5
  9
$DIMTFAC
 40
1.0
  9
$DIMGAP
 40
1.0
  9
$DIMJUST
 70
     0
  9
$DIMSD1
 70
     0
  9
$DIMSD2
 70
     0
  9
$DIMTOLJ
 70
     0
  9
$DIMTZIN
 70
     8
  9
$DIMALTZ
 70
     0
  9
$DIMALTTZ
 70
     0
  9
$DIMFIT
 70
     3
  9
$DIMUPT
 70
     1
  9
$DIMUNIT
 70
     2
  9
$DIMDEC
 70
     2
  9
$DIMTDEC
 70
     2
  9
$DIMALTU
 70
     2
  9
$DIMALTTD
 70
     3
  9
$DIMTXSTY
  7
STANDARD
  9
$DIMAUNIT
 70
     0
  9
$LUNITS
 70
     2
  9
$LUPREC
 70
     4
  9
$SKETCHINC
 40
1.0
  9
$FILLETRAD
 40
10.0
  9
$AUNITS
 70
     0
  9
$AUPREC
 70
     0
  9
$MENU
  1
.
  9
$ELEVATION
 40
0.0
  9
$PELEVATION
 40
0.0
  9
$THICKNESS
 40
0.0
  9
$LIMCHECK
 70
     0
  9
$BLIPMODE
 70
     0
  9
$CHAMFERA
 40
10.0
  9
$CHAMFERB
 40
10.0
  9
$CHAMFERC
 40
20.0
  9
$CHAMFERD
 40
0.0
  9
$SKPOLY
 70
     0
  9
$TDCREATE
 40
2452775.474155787
  9
$TDUPDATE
 40
2452775.580863403
  9
$TDINDWG
 40
0.1067083333
  9
$TDUSRTIMER
 40
0.1067083333
  9
$USRTIMER
 70
     1
  9
$ANGBASE
 50
0.0
  9
$ANGDIR
 70
     0
  9
$PDMODE
 70
     0
  9
$PDSIZE
 40
0.0
  9
$PLINEWID
 40
0.0
  9
$COORDS
 70
     1
  9
$SPLFRAME
 70
     0
  9
$SPLINETYPE
 70
     6
  9
$SPLINESEGS
 70
     8
  9
$ATTDIA
 70
     0
  9
$ATTREQ
 70
     1
  9
$HANDLING
 70
 12289
  9
$HANDSEED
  5
A23
  9
$SURFTAB1
 70
     6
  9
$SURFTAB2
 70
     6
  9
$SURFTYPE
 70
     6
  9
$SURFU
 70
     6
  9
$SURFV
 70
     6
  9
$UCSNAME
  2

  9
$UCSORG
 10
0.0
 20
0.0
 30
0.0
  9
$UCSXDIR
 10
1.0
 20
0.0
 30
0.0
  9
$UCSYDIR
 10
0.0
 20
1.0
 30
0.0
  9
$PUCSNAME
  2

  9
$PUCSORG
 10
0.0
 20
0.0
 30
0.0
  9
$PUCSXDIR
 10
1.0
 20
0.0
 30
0.0
  9
$PUCSYDIR
 10
0.0
 20
1.0
 30
0.0
  9
$USERI1
 70
     0
  9
$USERI2
 70
     0
  9
$USERI3
 70
     0
  9
$USERI4
 70
     0
  9
$USERI5
 70
     0
  9
$USERR1
 40
0.0
  9
$USERR2
 40
0.0
  9
$USERR3
 40
0.0
  9
$USERR4
 40
0.0
  9
$USERR5
 40
0.0
  9
$WORLDVIEW
 70
     1
  9
$SHADEDGE
 70
     3
  9
$SHADEDIF
 70
    70
  9
$TILEMODE
 70
     1
  9
$MAXACTVP
 70
    64
  9
$PINSBASE
 10
0.0
 20
0.0
 30
0.0
  9
$PLIMCHECK
 70
     0
  9
$PEXTMIN
 10
1.000000000000000E+20
 20
1.000000000000000E+20
 30
1.000000000000000E+20
  9
$PEXTMAX
 10
-1.000000000000000E+20
 20
-1.000000000000000E+20
 30
-1.000000000000000E+20
  9
$PLIMMIN
 10
0.0
 20
0.0
  9
$PLIMMAX
 10
420.0
 20
297.0
  9
$UNITMODE
 70
     0
  9
$VISRETAIN
 70
     1
  9
$PLINEGEN
 70
     0
  9
$PSLTSCALE
 70
     1
  9
$TREEDEPTH
 70
  3020
  9
$PICKSTYLE
 70
     1
  9
$CMLSTYLE
  2
STANDARD
  9
$CMLJUST
 70
     0
  9
$CMLSCALE
 40
20.0
  9
$PROXYGRAPHICS
 70
     1
  9
$MEASUREMENT
 70
     1
  0
ENDSEC
  0
SECTION
  2
CLASSES
  0
CLASS
  1
ACDBDICTIONARYWDFLT
  2
AcDbDictionaryWithDefault
  3
AutoCAD 2000
 90
        0
280
     0
281
     0
  0
CLASS
  1
ACDBPLACEHOLDER
  2
AcDbPlaceHolder
  3
AutoCAD 2000
 90
        0
280
     0
281
     0
  0
CLASS
  1
LAYOUT
  2
AcDbLayout
  3
AutoCAD 2000
 90
        0
280
     0
281
     0
  0
CLASS
  1
DICTIONARYVAR
  2
AcDbDictionaryVar
  3
AutoCAD 2000
 90
        0
280
     0
281
     0
  0
CLASS
  1
LONG_TRANSACTION
  2
AcDbLongTransaction
  3
AutoCAD 2000
 90
        0
280
     0
281
     0
  0
CLASS
  1
LWPOLYLINE
  2
AcDbPolyline
  3
AutoCAD 2000
 90
        0
280
     0
281
     1
  0
CLASS
  1
HATCH
  2
AcDbHatch
  3
AutoCAD 2000
 90
        0
280
     0
281
     1
  0
CLASS
  1
XRECORD
  2
AcDbXrecord
  3
AutoCAD 2000
 90
        0
280
     0
281
     0
  0
ENDSEC
  0
SECTION
  2
TABLES
  0
TABLE
  2
VPORT
  5
8
330
0
100
AcDbSymbolTable
 70
     4
  0
VPORT
  5
9D9
330
8
100
AcDbSymbolTableRecord
100
AcDbViewportTableRecord
  2
*ACTIVE
 70
     0
 10
0.0
 20
0.0
 11
1.0
 21
1.0
 12
126.8632516135267
 22
188.516327642389
 13
0.0
 23
0.0
 14
10.0
 24
10.0
 15
10.0
 25
10.0
 16
0.0
 26
0.0
 36
1.0
 17
0.0
 27
0.0
 37
0.0
 40
119.9778947690242
 41
1.2734375
 42
50.0
 43
0.0
 44
0.0
 50
0.0
 51
0.0
 71
     0
 72
   100
 73
     1
 74
     3
 75
     0
 76
     0
 77
     0
 78
     0
  0
ENDTAB
  0
TABLE
  2
LTYPE
  5
5
330
0
100
AcDbSymbolTable
 70
     2
  0
LTYPE
  5
14
330
5
100
AcDbSymbolTableRecord
100
AcDbLinetypeTableRecord
  2
BYBLOCK
 70
     0
  3

 72
    65
 73
     0
 40
0.0
  0
LTYPE
  5
15
330
5
100
AcDbSymbolTableRecord
100
AcDbLinetypeTableRecord
  2
BYLAYER
 70
     0
  3

 72
    65
 73
     0
 40
0.0
  0
LTYPE
  5
16
330
5
100
AcDbSymbolTableRecord
100
AcDbLinetypeTableRecord
  2
CONTINUOUS
 70
     0
  3
Solid line
 72
    65
 73
     0
 40
0.0
  0
LTYPE
  5
12F
330
5
100
AcDbSymbolTableRecord
100
AcDbLinetypeTableRecord
  2
CENTER
 70
     0
  3
Center ____ _ ____ _ ____ _ ____ _ ____ _ ____
 72
    65
 73
     4
 40
50.8
 49
31.75
 74
     0
 49
-6.349999999999997
 74
     0
 49
6.349999999999997
 74
     0
 49
-6.349999999999997
 74
     0
  0
ENDTAB
  0
TABLE
  2
LAYER
  5
2
330
0
100
AcDbSymbolTable
 70
     9
  0
LAYER
  5
10
330
2
100
AcDbSymbolTableRecord
100
AcDbLayerTableRecord
  2
0
 70
     0
 62
     1
  6
CONTINUOUS
  0
LAYER
  5
130
330
2
100
AcDbSymbolTableRecord
100
AcDbLayerTableRecord
  2
DEFPOINTS
 70
     0
 62
     7
  6
CONTINUOUS
  0
LAYER
  5
131
330
2
100
AcDbSymbolTableRecord
100
AcDbLayerTableRecord
  2
CENTER
 70
     0
 62
     5
  6
CENTER
  0
LAYER
  5
132
330
2
100
AcDbSymbolTableRecord
100
AcDbLayerTableRecord
  2
FORM
 70
     0
 62
     1
  6
CONTINUOUS
  0
LAYER
  5
133
330
2
100
AcDbSymbolTableRecord
100
AcDbLayerTableRecord
  2
DIMENSION
 70
     0
 62
     7
  6
CONTINUOUS
  0
LAYER
  5
134
330
2
100
AcDbSymbolTableRecord
100
AcDbLayerTableRecord
  2
T
 70
     0
 62
     2
  6
CONTINUOUS
  0
LAYER
  5
135
330
2
100
AcDbSymbolTableRecord
100
AcDbLayerTableRecord
  2
PRO1
 70
     0
 62
     6
  6
CONTINUOUS
  0
LAYER
  5
136
330
2
100
AcDbSymbolTableRecord
100
AcDbLayerTableRecord
  2
PRO2
 70
     0
 62
     1
  6
CONTINUOUS
  0
LAYER
  5
137
330
2
100
AcDbSymbolTableRecord
100
AcDbLayerTableRecord
  2
PRO3
 70
     0
 62
     1
  6
CONTINUOUS
  0
ENDTAB
  0
TABLE
  2
STYLE
  5
3
330
0
100
AcDbSymbolTable
 70
     1
  0
STYLE
  5
11
330
3
100
AcDbSymbolTableRecord
100
AcDbTextStyleTableRecord
  2
STANDARD
 70
     0
 40
0.0
 41
1.0
 50
0.0
 71
     0
 42
2.5
  3
simplex.shx
  4

  0
ENDTAB
  0
TABLE
  2
VIEW
  5
6
330
0
100
AcDbSymbolTable
 70
     0
  0
ENDTAB
  0
TABLE
  2
UCS
  5
7
330
0
100
AcDbSymbolTable
 70
     0
  0
ENDTAB
  0
TABLE
  2
APPID
  5
9
330
0
100
AcDbSymbolTable
 70
     1
  0
APPID
  5
12
330
9
100
AcDbSymbolTableRecord
100
AcDbRegAppTableRecord
  2
ACAD
 70
     0
  0
ENDTAB
  0
TABLE
  2
DIMSTYLE
  5
A
330
0
100
AcDbSymbolTable
 70
     2
  0
DIMSTYLE
105
27
102
{ACAD_REACTORS
330
255
330
254
330
22B
330
256
330
1E4
330
21D
330
1E9
330
20A
330
1F8
330
20B
330
20E
330
1ED
330
1EC
330
1EF
330
1EE
330
1CC
330
1E8
330
576
330
58D
330
5A1
330
5AB
330
5B8
330
6E9
330
6F5
330
798
330
7A7
330
583
330
597
330
7B8
330
7C5
330
7CF
330
7FE
330
80B
330
5CA
330
818
330
975
102
}
330
A
100
AcDbSymbolTableRecord
100
AcDbDimStyleTableRecord
  2
ISO-25
 70
     0
  3

  4

  5

  6

  7

 40
1.0
 41
2.5
 42
0.0
 43
3.75
 44
2.0
 45
0.0
 46
0.0
 47
0.0
 48
0.0
140
2.5
141
2.5
142
0.0
143
0.03937007874016
144
1.0
145
0.0
146
1.0
147
1.0
 71
     0
 72
     0
 73
     0
 74
     0
 75
     0
 76
     0
 77
     1
 78
     8
170
     0
171
     3
172
     1
173
     0
174
     0
175
     0
176
     0
177
     0
178
     5
270
     2
271
     2
272
     2
273
     2
274
     3
340
11
275
     0
280
     0
281
     0
282
     0
283
     0
284
     8
285
     0
286
     0
287
     3
288
     1
  0
DIMSTYLE
105
138
102
{ACAD_REACTORS
330
1C5
330
19B
330
159
330
1C6
330
18D
330
158
330
1C4
330
17A
330
168
330
15E
330
15F
330
17E
330
15D
330
194
330
155
330
13C
330
154
330
17B
330
15C
330
224
330
1E5
102
}
330
A
100
AcDbSymbolTableRecord
100
AcDbDimStyleTableRecord
  2
STANDARD
 70
     0
  3

  4

  5

  6

  7

 40
1.0
 41
0.18
 42
0.0625
 43
0.38
 44
0.18
 45
0.0
 46
0.0
 47
0.0
 48
0.0
140
0.18
141
0.09
142
0.0
143
25.4
144
1.0
145
0.0
146
1.0
147
0.09
 71
     0
 72
     0
 73
     1
 74
     1
 75
     0
 76
     0
 77
     0
 78
     0
170
     0
171
     2
172
     0
173
     0
174
     0
175
     0
176
     0
177
     0
178
     0
270
     2
271
     4
272
     4
273
     2
274
     2
340
11
275
     0
280
     0
281
     0
282
     0
283
     1
284
     0
285
     0
286
     0
287
     3
288
     0
  0
ENDTAB
  0
TABLE
  2
BLOCK_RECORD
  5
1
330
0
100
AcDbSymbolTable
 70
    61
  0
BLOCK_RECORD
  5
1F
102
{ACAD_XDICTIONARY
360
9FD
102
}
330
1
100
AcDbSymbolTableRecord
100
AcDbBlockTableRecord
  2
*MODEL_SPACE
  0
BLOCK_RECORD
  5
1B
102
{ACAD_XDICTIONARY
360
9FB
102
}
330
1
100
AcDbSymbolTableRecord
100
AcDbBlockTableRecord
  2
*PAPER_SPACE
  0
BLOCK_RECORD
  5
2B
330
1
100
AcDbSymbolTableRecord
100
AcDbBlockTableRecord
  2
*D1
  0
BLOCK_RECORD
  5
37
330
1
100
AcDbSymbolTableRecord
100
AcDbBlockTableRecord
  2
*D2
  0
BLOCK_RECORD
  5
43
330
1
100
AcDbSymbolTableRecord
100
AcDbBlockTableRecord
  2
*D3
  0
BLOCK_RECORD
  5
4F
330
1
100
AcDbSymbolTableRecord
100
AcDbBlockTableRecord
  2
*D4
  0
BLOCK_RECORD
  5
5C
330
1
100
AcDbSymbolTableRecord
100
AcDbBlockTableRecord
  2
*D5
  0
BLOCK_RECORD
  5
6A
330
1
100
AcDbSymbolTableRecord
100
AcDbBlockTableRecord
  2
*D6
  0
BLOCK_RECORD
  5
76
330
1
100
AcDbSymbolTableRecord
100
AcDbBlockTableRecord
  2
*D7
  0
BLOCK_RECORD
  5
82
330
1
100
AcDbSymbolTableRecord
100
AcDbBlockTableRecord
  2
*D8
  0
BLOCK_RECORD
  5
90
330
1
100
AcDbSymbolTableRecord
100
AcDbBlockTableRecord
  2
_OBLIQUE
  0
BLOCK_RECORD
  5
94
330
1
100
AcDbSymbolTableRecord
100
AcDbBlockTableRecord
  2
*D10
  0
BLOCK_RECORD
  5
A2
330
1
100
AcDbSymbolTableRecord
100
AcDbBlockTableRecord
  2
*D11
  0
BLOCK_RECORD
  5
AF
330
1
100
AcDbSymbolTableRecord
100
AcDbBlockTableRecord
  2
*D12
  0
BLOCK_RECORD
  5
BD
330
1
100
AcDbSymbolTableRecord
100
AcDbBlockTableRecord
  2
*D13
  0
BLOCK_RECORD
  5
CB
330
1
100
AcDbSymbolTableRecord
100
AcDbBlockTableRecord
  2
*D14
  0
BLOCK_RECORD
  5
D9
330
1
100
AcDbSymbolTableRecord
100
AcDbBlockTableRecord
  2
*D15
  0
BLOCK_RECORD
  5
E7
330
1
100
AcDbSymbolTableRecord
100
AcDbBlockTableRecord
  2
*D16
  0
BLOCK_RECORD
  5
F5
330
1
100
AcDbSymbolTableRecord
100
AcDbBlockTableRecord
  2
*D17
  0
BLOCK_RECORD
  5
103
330
1
100
AcDbSymbolTableRecord
100
AcDbBlockTableRecord
  2
*D18
  0
BLOCK_RECORD
  5
111
330
1
100
AcDbSymbolTableRecord
100
AcDbBlockTableRecord
  2
*D19
  0
BLOCK_RECORD
  5
11E
330
1
100
AcDbSymbolTableRecord
100
AcDbBlockTableRecord
  2
*D20
  0
BLOCK_RECORD
  5
12C
330
1
100
AcDbSymbolTableRecord
100
AcDbBlockTableRecord
  2
_NONE
  0
BLOCK_RECORD
  5
257
330
1
100
AcDbSymbolTableRecord
100
AcDbBlockTableRecord
  2
*D23
  0
BLOCK_RECORD
  5
265
330
1
100
AcDbSymbolTableRecord
100
AcDbBlockTableRecord
  2
*D24
  0
BLOCK_RECORD
  5
273
330
1
100
AcDbSymbolTableRecord
100
AcDbBlockTableRecord
  2
*D25
  0
BLOCK_RECORD
  5
281
330
1
100
AcDbSymbolTableRecord
100
AcDbBlockTableRecord
  2
*D26
  0
BLOCK_RECORD
  5
28D
330
1
100
AcDbSymbolTableRecord
100
AcDbBlockTableRecord
  2
*D27
  0
BLOCK_RECORD
  5
299
330
1
100
AcDbSymbolTableRecord
100
AcDbBlockTableRecord
  2
*D28
  0
BLOCK_RECORD
  5
2A7
330
1
100
AcDbSymbolTableRecord
100
AcDbBlockTableRecord
  2
*D29
  0
BLOCK_RECORD
  5
2B5
330
1
100
AcDbSymbolTableRecord
100
AcDbBlockTableRecord
  2
*D30
  0
BLOCK_RECORD
  5
2C2
330
1
100
AcDbSymbolTableRecord
100
AcDbBlockTableRecord
  2
*D31
  0
BLOCK_RECORD
  5
2D0
330
1
100
AcDbSymbolTableRecord
100
AcDbBlockTableRecord
  2
*D32
  0
BLOCK_RECORD
  5
2DE
330
1
100
AcDbSymbolTableRecord
100
AcDbBlockTableRecord
  2
*D33
  0
BLOCK_RECORD
  5
2EC
330
1
100
AcDbSymbolTableRecord
100
AcDbBlockTableRecord
  2
*D34
  0
BLOCK_RECORD
  5
2F9
330
1
100
AcDbSymbolTableRecord
100
AcDbBlockTableRecord
  2
*D35
  0
BLOCK_RECORD
  5
307
330
1
100
AcDbSymbolTableRecord
100
AcDbBlockTableRecord
  2
*D36
  0
BLOCK_RECORD
  5
315
330
1
100
AcDbSymbolTableRecord
100
AcDbBlockTableRecord
  2
*D37
  0
BLOCK_RECORD
  5
323
330
1
100
AcDbSymbolTableRecord
100
AcDbBlockTableRecord
  2
*D38
  0
BLOCK_RECORD
  5
32F
330
1
100
AcDbSymbolTableRecord
100
AcDbBlockTableRecord
  2
*D39
  0
BLOCK_RECORD
  5
33B
330
1
100
AcDbSymbolTableRecord
100
AcDbBlockTableRecord
  2
*D40
  0
BLOCK_RECORD
  5
347
330
1
100
AcDbSymbolTableRecord
100
AcDbBlockTableRecord
  2
*D41
  0
BLOCK_RECORD
  5
577
330
1
100
AcDbSymbolTableRecord
100
AcDbBlockTableRecord
  2
*D42
  0
BLOCK_RECORD
  5
584
330
1
100
AcDbSymbolTableRecord
100
AcDbBlockTableRecord
  2
*D43
  0
BLOCK_RECORD
  5
58E
330
1
100
AcDbSymbolTableRecord
100
AcDbBlockTableRecord
  2
*D44
  0
BLOCK_RECORD
  5
598
330
1
100
AcDbSymbolTableRecord
100
AcDbBlockTableRecord
  2
*D45
  0
BLOCK_RECORD
  5
5A2
330
1
100
AcDbSymbolTableRecord
100
AcDbBlockTableRecord
  2
*D46
  0
BLOCK_RECORD
  5
5AC
330
1
100
AcDbSymbolTableRecord
100
AcDbBlockTableRecord
  2
*D47
  0
BLOCK_RECORD
  5
5B9
330
1
100
AcDbSymbolTableRecord
100
AcDbBlockTableRecord
  2
*D48
  0
BLOCK_RECORD
  5
6AC
330
1
100
AcDbSymbolTableRecord
100
AcDbBlockTableRecord
  2
_OPEN
  0
BLOCK_RECORD
  5
6EA
330
1
100
AcDbSymbolTableRecord
100
AcDbBlockTableRecord
  2
*D50
  0
BLOCK_RECORD
  5
6F6
330
1
100
AcDbSymbolTableRecord
100
AcDbBlockTableRecord
  2
*D51
  0
BLOCK_RECORD
  5
799
330
1
100
AcDbSymbolTableRecord
100
AcDbBlockTableRecord
  2
*D52
  0
BLOCK_RECORD
  5
7A8
330
1
100
AcDbSymbolTableRecord
100
AcDbBlockTableRecord
  2
*D53
  0
BLOCK_RECORD
  5
7B9
330
1
100
AcDbSymbolTableRecord
100
AcDbBlockTableRecord
  2
*D54
  0
BLOCK_RECORD
  5
7C6
330
1
100
AcDbSymbolTableRecord
100
AcDbBlockTableRecord
  2
*D55
  0
BLOCK_RECORD
  5
7D0
330
1
100
AcDbSymbolTableRecord
100
AcDbBlockTableRecord
  2
*D56
  0
BLOCK_RECORD
  5
7FF
330
1
100
AcDbSymbolTableRecord
100
AcDbBlockTableRecord
  2
*D57
  0
BLOCK_RECORD
  5
80C
330
1
100
AcDbSymbolTableRecord
100
AcDbBlockTableRecord
  2
*D58
  0
BLOCK_RECORD
  5
819
330
1
100
AcDbSymbolTableRecord
100
AcDbBlockTableRecord
  2
*D59
  0
BLOCK_RECORD
  5
976
330
1
100
AcDbSymbolTableRecord
100
AcDbBlockTableRecord
  2
*D60
  0
ENDTAB
  0
ENDSEC
  0
SECTION
  2
BLOCKS
  0
BLOCK
  5
20
330
1F
100
AcDbEntity
  8
0
100
AcDbBlockBegin
  2
*MODEL_SPACE
 70
     0
 10
0.0
 20
0.0
 30
0.0
  3
*MODEL_SPACE
  1

  0
ENDBLK
  5
21
330
1F
100
AcDbEntity
  8
0
100
AcDbBlockEnd
  0
BLOCK
  5
1C
330
1B
100
AcDbEntity
 67
     1
  8
0
100
AcDbBlockBegin
  2
*PAPER_SPACE
 70
     0
 10
0.0
 20
0.0
 30
0.0
  3
*PAPER_SPACE
  1

  0
ENDBLK
  5
1D
330
1B
100
AcDbEntity
 67
     1
  8
0
100
AcDbBlockEnd
  0
BLOCK
  5
35
330
2B
100
AcDbEntity
  8
0
100
AcDbBlockBegin
  2
*D1
 70
     1
 10
0.0
 20
0.0
 30
0.0
  3
*D1
  1

  0
LINE
  5
2C
330
2B
100
AcDbEntity
  8
DIMENSION
 62
     0
100
AcDbLine
 10
268.149423986492
 20
-95.75092113344174
 30
0.0
 11
289.6028939119656
 21
-95.75092113344174
 31
0.0
  0
LINE
  5
2D
330
2B
100
AcDbEntity
  8
DIMENSION
 62
     0
100
AcDbLine
 10
268.149423986492
 20
-103.7509211334415
 30
0.0
 11
289.6028939119656
 21
-103.7509211334415
 31
0.0
  0
LINE
  5
2E
330
2B
100
AcDbEntity
  8
DIMENSION
 62
     0
100
AcDbLine
 10
287.6028939119656
 20
-98.25092113344174
 30
0.0
 11
287.6028939119656
 21
-101.2509211334415
 31
0.0
  0
SOLID
  5
2F
330
2B
100
AcDbEntity
  8
DIMENSION
 62
     0
100
AcDbTrace
 10
287.1862272452989
 20
-98.25092113344174
 30
0.0
 11
288.0195605786322
 21
-98.25092113344176
 31
0.0
 12
287.6028939119656
 22
-95.75092113344174
 32
0.0
 13
287.6028939119656
 23
-95.75092113344174
 33
0.0
  0
SOLID
  5
30
330
2B
100
AcDbEntity
  8
DIMENSION
 62
     0
100
AcDbTrace
 10
287.1862272452989
 20
-101.2509211334415
 30
0.0
 11
288.0195605786322
 21
-101.2509211334415
 31
0.0
 12
287.6028939119656
 22
-103.7509211334415
 32
0.0
 13
287.6028939119656
 23
-103.7509211334415
 33
0.0
  0
MTEXT
  5
31
330
2B
100
AcDbEntity
  8
DIMENSION
 62
     0
100
AcDbMText
 10
284.6028939119656
 20
-99.75092113344159
 30
0.0
 40
4.0
 41
0.0
 71
     5
 72
     1
  1
\A1;8
 11
0.0000000000000001
 21
1.0
 31
0.0
1001
ACAD
1000
MTEXTBEGIN
1070
    73
1070
     1
1070
    44
1040
1.0
1070
    74
1070
     0
1000
MTEXTEND
  0
POINT
  5
32
330
2B
100
AcDbEntity
  8
DEFPOINTS
 62
     0
100
AcDbPoint
 10
268.149423986492
 20
-95.75092113344174
 30
0.0
  0
POINT
  5
33
330
2B
100
AcDbEntity
  8
DEFPOINTS
 62
     0
100
AcDbPoint
 10
268.149423986492
 20
-103.7509211334415
 30
0.0
  0
POINT
  5
34
330
2B
100
AcDbEntity
  8
DEFPOINTS
 62
     0
100
AcDbPoint
 10
287.6028939119656
 20
-103.7509211334415
 30
0.0
  0
ENDBLK
  5
36
330
2B
100
AcDbEntity
  8
0
100
AcDbBlockEnd
  0
BLOCK
  5
41
330
37
100
AcDbEntity
  8
0
100
AcDbBlockBegin
  2
*D2
 70
     1
 10
0.0
 20
0.0
 30
0.0
  3
*D2
  1

  0
LINE
  5
38
330
37
100
AcDbEntity
  8
DIMENSION
 62
     0
100
AcDbLine
 10
250.6494239864919
 20
-95.75092113344174
 30
0.0
 11
250.6494239864919
 21
-81.4407779334035
 31
0.0
  0
LINE
  5
39
330
37
100
AcDbEntity
  8
DIMENSION
 62
     0
100
AcDbLine
 10
268.149423986492
 20
-95.75092113344174
 30
0.0
 11
268.149423986492
 21
-81.4407779334035
 31
0.0
  0
LINE
  5
3A
330
37
100
AcDbEntity
  8
DIMENSION
 62
     0
100
AcDbLine
 10
253.1494239864918
 20
-83.44077793340352
 30
0.0
 11
265.649423986492
 21
-83.44077793340352
 31
0.0
  0
SOLID
  5
3B
330
37
100
AcDbEntity
  8
DIMENSION
 62
     0
100
AcDbTrace
 10
253.1494239864918
 20
-83.02411126673684
 30
0.0
 11
253.1494239864918
 21
-83.85744460007018
 31
0.0
 12
250.6494239864919
 22
-83.44077793340352
 32
0.0
 13
250.6494239864919
 23
-83.44077793340352
 33
0.0
  0
SOLID
  5
3C
330
37
100
AcDbEntity
  8
DIMENSION
 62
     0
100
AcDbTrace
 10
265.649423986492
 20
-83.02411126673684
 30
0.0
 11
265.649423986492
 21
-83.85744460007018
 31
0.0
 12
268.149423986492
 22
-83.44077793340352
 32
0.0
 13
268.149423986492
 23
-83.44077793340352
 33
0.0
  0
MTEXT
  5
3D
330
37
100
AcDbEntity
  8
DIMENSION
 62
     0
100
AcDbMText
 10
259.3994239864919
 20
-80.10744460007018
 30
0.0
 40
4.0
 41
0.0
 71
     5
 72
     1
  1
\A1;17,5
1001
ACAD
1000
MTEXTBEGIN
1070
    73
1070
     1
1070
    44
1040
1.0
1070
    74
1070
     0
1000
MTEXTEND
  0
POINT
  5
3E
330
37
100
AcDbEntity
  8
DEFPOINTS
 62
     0
100
AcDbPoint
 10
250.6494239864919
 20
-95.75092113344174
 30
0.0
  0
POINT
  5
3F
330
37
100
AcDbEntity
  8
DEFPOINTS
 62
     0
100
AcDbPoint
 10
268.149423986492
 20
-95.75092113344174
 30
0.0
  0
POINT
  5
40
330
37
100
AcDbEntity
  8
DEFPOINTS
 62
     0
100
AcDbPoint
 10
268.149423986492
 20
-83.44077793340352
 30
0.0
  0
ENDBLK
  5
42
330
37
100
AcDbEntity
  8
0
100
AcDbBlockEnd
  0
BLOCK
  5
4D
330
43
100
AcDbEntity
  8
0
100
AcDbBlockBegin
  2
*D3
 70
     1
 10
0.0
 20
0.0
 30
0.0
  3
*D3
  1

  0
LINE
  5
44
330
43
100
AcDbEntity
  8
DIMENSION
 62
     0
100
AcDbLine
 10
255.649423986492
 20
-112.7509211334416
 30
0.0
 11
255.649423986492
 21
-140.404768166743
 31
0.0
  0
LINE
  5
45
330
43
100
AcDbEntity
  8
DIMENSION
 62
     0
100
AcDbLine
 10
240.1494239864919
 20
-107.0009211334417
 30
0.0
 11
240.1494239864919
 21
-140.404768166743
 31
0.0
  0
LINE
  5
46
330
43
100
AcDbEntity
  8
DIMENSION
 62
     0
100
AcDbLine
 10
253.1494239864919
 20
-138.404768166743
 30
0.0
 11
242.6494239864918
 21
-138.404768166743
 31
0.0
  0
SOLID
  5
47
330
43
100
AcDbEntity
  8
DIMENSION
 62
     0
100
AcDbTrace
 10
253.1494239864919
 20
-137.9881015000763
 30
0.0
 11
253.1494239864919
 21
-138.8214348334096
 31
0.0
 12
255.649423986492
 22
-138.404768166743
 32
0.0
 13
255.649423986492
 23
-138.404768166743
 33
0.0
  0
SOLID
  5
48
330
43
100
AcDbEntity
  8
DIMENSION
 62
     0
100
AcDbTrace
 10
242.6494239864918
 20
-137.9881015000763
 30
0.0
 11
242.6494239864918
 21
-138.8214348334096
 31
0.0
 12
240.1494239864919
 22
-138.404768166743
 32
0.0
 13
240.1494239864919
 23
-138.404768166743
 33
0.0
  0
MTEXT
  5
49
330
43
100
AcDbEntity
  8
DIMENSION
 62
     0
100
AcDbMText
 10
247.8994239864919
 20
-135.0714348334096
 30
0.0
 40
4.0
 41
0.0
 71
     5
 72
     1
  1
\A1;15,5
1001
ACAD
1000
MTEXTBEGIN
1070
    73
1070
     1
1070
    44
1040
1.0
1070
    74
1070
     0
1000
MTEXTEND
  0
POINT
  5
4A
330
43
100
AcDbEntity
  8
DEFPOINTS
 62
     0
100
AcDbPoint
 10
255.649423986492
 20
-112.7509211334416
 30
0.0
  0
POINT
  5
4B
330
43
100
AcDbEntity
  8
DEFPOINTS
 62
     0
100
AcDbPoint
 10
240.1494239864919
 20
-107.0009211334417
 30
0.0
  0
POINT
  5
4C
330
43
100
AcDbEntity
  8
DEFPOINTS
 62
     0
100
AcDbPoint
 10
240.1494239864919
 20
-138.404768166743
 30
0.0
  0
ENDBLK
  5
4E
330
43
100
AcDbEntity
  8
0
100
AcDbBlockEnd
  0
BLOCK
  5
5A
330
4F
100
AcDbEntity
  8
0
100
AcDbBlockBegin
  2
*D4
 70
     1
 10
0.0
 20
0.0
 30
0.0
  3
*D4
  1

  0
LINE
  5
50
330
4F
100
AcDbEntity
  8
DIMENSION
 62
     0
100
AcDbLine
 10
234.3994239864918
 20
-126.2509211334416
 30
0.0
 11
234.3994239864918
 21
-67.63703596767766
 31
0.0
  0
LINE
  5
51
330
4F
100
AcDbEntity
  8
DIMENSION
 62
     0
100
AcDbLine
 10
242.6494239864918
 20
-126.2509211334416
 30
0.0
 11
242.6494239864918
 21
-67.63703596767766
 31
0.0
  0
LINE
  5
52
330
4F
100
AcDbEntity
  8
DIMENSION
 62
     0
100
AcDbLine
 10
236.8994239864918
 20
-69.63703596767766
 30
0.0
 11
240.1494239864918
 21
-69.63703596767766
 31
0.0
  0
LINE
  5
53
330
4F
100
AcDbEntity
  8
DIMENSION
 62
     0
100
AcDbLine
 10
242.6494239864918
 20
-69.63703596767766
 30
0.0
 11
259.8160906531584
 21
-69.63703596767766
 31
0.0
  0
SOLID
  5
54
330
4F
100
AcDbEntity
  8
DIMENSION
 62
     0
100
AcDbTrace
 10
236.8994239864918
 20
-69.22036930101099
 30
0.0
 11
236.8994239864918
 21
-70.05370263434433
 31
0.0
 12
234.3994239864918
 22
-69.63703596767766
 32
0.0
 13
234.3994239864918
 23
-69.63703596767766
 33
0.0
  0
SOLID
  5
55
330
4F
100
AcDbEntity
  8
DIMENSION
 62
     0
100
AcDbTrace
 10
240.1494239864918
 20
-69.22036930101099
 30
0.0
 11
240.1494239864918
 21
-70.05370263434433
 31
0.0
 12
242.6494239864918
 22
-69.63703596767766
 32
0.0
 13
242.6494239864918
 23
-69.63703596767766
 33
0.0
  0
MTEXT
  5
56
330
4F
100
AcDbEntity
  8
DIMENSION
 62
     0
100
AcDbMText
 10
252.4827573198251
 20
-66.30370263434433
 30
0.0
 40
4.0
 41
0.0
 71
     5
 72
     1
  1
\A1;8,25
1001
ACAD
1000
MTEXTBEGIN
1070
    73
1070
     1
1070
    44
1040
1.0
1070
    74
1070
     0
1000
MTEXTEND
  0
POINT
  5
57
330
4F
100
AcDbEntity
  8
DEFPOINTS
 62
     0
100
AcDbPoint
 10
234.3994239864918
 20
-126.2509211334416
 30
0.0
  0
POINT
  5
58
330
4F
100
AcDbEntity
  8
DEFPOINTS
 62
     0
100
AcDbPoint
 10
242.6494239864918
 20
-126.2509211334416
 30
0.0
  0
POINT
  5
59
330
4F
100
AcDbEntity
  8
DEFPOINTS
 62
     0
100
AcDbPoint
 10
242.6494239864918
 20
-69.63703596767766
 30
0.0
  0
ENDBLK
  5
5B
330
4F
100
AcDbEntity
  8
0
100
AcDbBlockEnd
  0
BLOCK
  5
68
330
5C
100
AcDbEntity
  8
0
100
AcDbBlockBegin
  2
*D5
 70
     1
 10
0.0
 20
0.0
 30
0.0
  3
*D5
  1

  0
LINE
  5
5D
330
5C
100
AcDbEntity
  8
DIMENSION
 62
     0
100
AcDbLine
 10
234.3994239864918
 20
-123.2509211334416
 30
0.0
 11
230.5909586188644
 21
-123.2509211334416
 31
0.0
  0
LINE
  5
5E
330
5C
100
AcDbEntity
  8
DIMENSION
 62
     0
100
AcDbLine
 10
234.3994239864918
 20
-126.2509211334416
 30
0.0
 11
230.5909586188644
 21
-126.2509211334416
 31
0.0
  0
LINE
  5
5F
330
5C
100
AcDbEntity
  8
DIMENSION
 62
     0
100
AcDbLine
 10
232.5909586188644
 20
-120.7509211334415
 30
0.0
 11
232.5909586188644
 21
-118.2509211334416
 31
0.0
  0
LINE
  5
60
330
5C
100
AcDbEntity
  8
DIMENSION
 62
     0
100
AcDbLine
 10
232.5909586188644
 20
-128.7509211334415
 30
0.0
 11
232.5909586188644
 21
-135.9175878001082
 31
0.0
  0
LINE
  5
61
330
5C
100
AcDbEntity
  8
DIMENSION
 62
     0
100
AcDbLine
 10
232.5909586188644
 20
-123.2509211334416
 30
0.0
 11
232.5909586188644
 21
-126.2509211334416
 31
0.0
  0
SOLID
  5
62
330
5C
100
AcDbEntity
  8
DIMENSION
 62
     0
100
AcDbTrace
 10
232.1742919521977
 20
-120.7509211334415
 30
0.0
 11
233.007625285531
 21
-120.7509211334415
 31
0.0
 12
232.5909586188644
 22
-123.2509211334416
 32
0.0
 13
232.5909586188644
 23
-123.2509211334416
 33
0.0
  0
SOLID
  5
63
330
5C
100
AcDbEntity
  8
DIMENSION
 62
     0
100
AcDbTrace
 10
232.1742919521977
 20
-128.7509211334415
 30
0.0
 11
233.007625285531
 21
-128.7509211334415
 31
0.0
 12
232.5909586188644
 22
-126.2509211334416
 32
0.0
 13
232.5909586188644
 23
-126.2509211334416
 33
0.0
  0
MTEXT
  5
64
330
5C
100
AcDbEntity
  8
DIMENSION
 62
     0
100
AcDbMText
 10
229.5909586188644
 20
-133.5842544667748
 30
0.0
 40
4.0
 41
0.0
 71
     5
 72
     1
  1
\A1;3
 11
0.0000000000000001
 21
1.0
 31
0.0
1001
ACAD
1000
MTEXTBEGIN
1070
    73
1070
     1
1070
    44
1040
1.0
1070
    74
1070
     0
1000
MTEXTEND
  0
POINT
  5
65
330
5C
100
AcDbEntity
  8
DEFPOINTS
 62
     0
100
AcDbPoint
 10
234.3994239864918
 20
-123.2509211334416
 30
0.0
  0
POINT
  5
66
330
5C
100
AcDbEntity
  8
DEFPOINTS
 62
     0
100
AcDbPoint
 10
234.3994239864918
 20
-126.2509211334416
 30
0.0
  0
POINT
  5
67
330
5C
100
AcDbEntity
  8
DEFPOINTS
 62
     0
100
AcDbPoint
 10
232.5909586188644
 20
-126.2509211334416
 30
0.0
  0
ENDBLK
  5
69
330
5C
100
AcDbEntity
  8
0
100
AcDbBlockEnd
  0
BLOCK
  5
74
330
6A
100
AcDbEntity
  8
0
100
AcDbBlockBegin
  2
*D6
 70
     1
 10
0.0
 20
0.0
 30
0.0
  3
*D6
  1

  0
LINE
  5
6B
330
6A
100
AcDbEntity
  8
DIMENSION
 62
     0
100
AcDbLine
 10
184.0346236749216
 20
-95.75092113344174
 30
0.0
 11
203.2937072137017
 21
-95.75092113344174
 31
0.0
  0
LINE
  5
6C
330
6A
100
AcDbEntity
  8
DIMENSION
 62
     0
100
AcDbLine
 10
184.0346236749216
 20
-126.2509211334416
 30
0.0
 11
203.2937072137017
 21
-126.2509211334416
 31
0.0
  0
LINE
  5
6D
330
6A
100
AcDbEntity
  8
DIMENSION
 62
     0
100
AcDbLine
 10
201.2937072137017
 20
-98.25092113344174
 30
0.0
 11
201.2937072137017
 21
-123.7509211334415
 31
0.0
  0
SOLID
  5
6E
330
6A
100
AcDbEntity
  8
DIMENSION
 62
     0
100
AcDbTrace
 10
200.877040547035
 20
-98.25092113344174
 30
0.0
 11
201.7103738803683
 21
-98.25092113344174
 31
0.0
 12
201.2937072137017
 22
-95.75092113344174
 32
0.0
 13
201.2937072137017
 23
-95.75092113344174
 33
0.0
  0
SOLID
  5
6F
330
6A
100
AcDbEntity
  8
DIMENSION
 62
     0
100
AcDbTrace
 10
200.877040547035
 20
-123.7509211334415
 30
0.0
 11
201.7103738803683
 21
-123.7509211334415
 31
0.0
 12
201.2937072137017
 22
-126.2509211334416
 32
0.0
 13
201.2937072137017
 23
-126.2509211334416
 33
0.0
  0
MTEXT
  5
70
330
6A
100
AcDbEntity
  8
DIMENSION
 62
     0
100
AcDbMText
 10
197.9603738803684
 20
-111.0009211334416
 30
0.0
 40
4.0
 41
0.0
 71
     5
 72
     1
  1
\A1;30,5
 11
0.0000000000000001
 21
1.0
 31
0.0
1001
ACAD
1000
MTEXTBEGIN
1070
    73
1070
     1
1070
    44
1040
1.0
1070
    74
1070
     0
1000
MTEXTEND
  0
POINT
  5
71
330
6A
100
AcDbEntity
  8
DEFPOINTS
 62
     0
100
AcDbPoint
 10
184.0346236749216
 20
-95.75092113344174
 30
0.0
  0
POINT
  5
72
330
6A
100
AcDbEntity
  8
DEFPOINTS
 62
     0
100
AcDbPoint
 10
184.0346236749216
 20
-126.2509211334416
 30
0.0
  0
POINT
  5
73
330
6A
100
AcDbEntity
  8
DEFPOINTS
 62
     0
100
AcDbPoint
 10
201.2937072137017
 20
-126.2509211334416
 30
0.0
  0
ENDBLK
  5
75
330
6A
100
AcDbEntity
  8
0
100
AcDbBlockEnd
  0
BLOCK
  5
80
330
76
100
AcDbEntity
  8
0
100
AcDbBlockBegin
  2
*D7
 70
     1
 10
0.0
 20
0.0
 30
0.0
  3
*D7
  1

  0
LINE
  5
77
330
76
100
AcDbEntity
  8
DIMENSION
 62
     0
100
AcDbLine
 10
255.649423986492
 20
-112.7509211334416
 30
0.0
 11
298.7336822123808
 21
-112.7509211334416
 31
0.0
  0
LINE
  5
78
330
76
100
AcDbEntity
  8
DIMENSION
 62
     0
100
AcDbLine
 10
268.149423986492
 20
-95.75092113344174
 30
0.0
 11
298.7336822123808
 21
-95.75092113344174
 31
0.0
  0
LINE
  5
79
330
76
100
AcDbEntity
  8
DIMENSION
 62
     0
100
AcDbLine
 10
296.7336822123808
 20
-110.2509211334416
 30
0.0
 11
296.7336822123808
 21
-98.25092113344176
 31
0.0
  0
SOLID
  5
7A
330
76
100
AcDbEntity
  8
DIMENSION
 62
     0
100
AcDbTrace
 10
296.3170155457141
 20
-110.2509211334416
 30
0.0
 11
297.1503488790474
 21
-110.2509211334416
 31
0.0
 12
296.7336822123808
 22
-112.7509211334416
 32
0.0
 13
296.7336822123808
 23
-112.7509211334416
 33
0.0
  0
SOLID
  5
7B
330
76
100
AcDbEntity
  8
DIMENSION
 62
     0
100
AcDbTrace
 10
296.3170155457141
 20
-98.25092113344176
 30
0.0
 11
297.1503488790474
 21
-98.25092113344176
 31
0.0
 12
296.7336822123808
 22
-95.75092113344174
 32
0.0
 13
296.7336822123808
 23
-95.75092113344174
 33
0.0
  0
MTEXT
  5
7C
330
76
100
AcDbEntity
  8
DIMENSION
 62
     0
100
AcDbMText
 10
293.7336822123808
 20
-104.2509211334416
 30
0.0
 40
4.0
 41
0.0
 71
     5
 72
     1
  1
\A1;17
 11
0.0000000000000001
 21
1.0
 31
0.0
1001
ACAD
1000
MTEXTBEGIN
1070
    73
1070
     1
1070
    44
1040
1.0
1070
    74
1070
     0
1000
MTEXTEND
  0
POINT
  5
7D
330
76
100
AcDbEntity
  8
DEFPOINTS
 62
     0
100
AcDbPoint
 10
255.649423986492
 20
-112.7509211334416
 30
0.0
  0
POINT
  5
7E
330
76
100
AcDbEntity
  8
DEFPOINTS
 62
     0
100
AcDbPoint
 10
268.149423986492
 20
-95.75092113344174
 30
0.0
  0
POINT
  5
7F
330
76
100
AcDbEntity
  8
DEFPOINTS
 62
     0
100
AcDbPoint
 10
296.7336822123808
 20
-95.75092113344174
 30
0.0
  0
ENDBLK
  5
81
330
76
100
AcDbEntity
  8
0
100
AcDbBlockEnd
  0
BLOCK
  5
8E
330
82
100
AcDbEntity
  8
0
100
AcDbBlockBegin
  2
*D8
 70
     1
 10
0.0
 20
0.0
 30
0.0
  3
*D8
  1

  0
LINE
  5
83
330
82
100
AcDbEntity
  8
DIMENSION
 62
     0
100
AcDbLine
 10
235.9587154258579
 20
-162.3347200076948
 30
0.0
 11
235.9587154258579
 21
-154.8253081829054
 31
0.0
  0
LINE
  5
84
330
82
100
AcDbEntity
  8
DIMENSION
 62
     0
100
AcDbLine
 10
251.4587154258578
 20
-162.3347200076948
 30
0.0
 11
251.4587154258578
 21
-154.8253081829054
 31
0.0
  0
LINE
  5
85
330
82
100
AcDbEntity
  8
DIMENSION
 62
     0
100
AcDbLine
 10
233.4587154258577
 20
-156.8253081829054
 30
0.0
 11
230.9587154258577
 21
-156.8253081829054
 31
0.0
  0
LINE
  5
86
330
82
100
AcDbEntity
  8
DIMENSION
 62
     0
100
AcDbLine
 10
253.9587154258577
 20
-156.8253081829054
 30
0.0
 11
256.4587154258578
 21
-156.8253081829054
 31
0.0
  0
LINE
  5
87
330
82
100
AcDbEntity
  8
DIMENSION
 62
     0
100
AcDbLine
 10
235.9587154258579
 20
-156.8253081829054
 30
0.0
 11
251.4587154258578
 21
-156.8253081829054
 31
0.0
  0
SOLID
  5
88
330
82
100
AcDbEntity
  8
DIMENSION
 62
     0
100
AcDbTrace
 10
233.4587154258577
 20
-156.4086415162388
 30
0.0
 11
233.4587154258577
 21
-157.241974849572
 31
0.0
 12
235.9587154258579
 22
-156.8253081829054
 32
0.0
 13
235.9587154258579
 23
-156.8253081829054
 33
0.0
  0
SOLID
  5
89
330
82
100
AcDbEntity
  8
DIMENSION
 62
     0
100
AcDbTrace
 10
253.9587154258577
 20
-156.4086415162388
 30
0.0
 11
253.9587154258577
 21
-157.241974849572
 31
0.0
 12
251.4587154258578
 22
-156.8253081829054
 32
0.0
 13
251.4587154258578
 23
-156.8253081829054
 33
0.0
  0
MTEXT
  5
8A
330
82
100
AcDbEntity
  8
DIMENSION
 62
     5
100
AcDbMText
 10
243.8908418374126
 20
-153.8253081829054
 30
0.0
 40
4.0
 41
0.0
 71
     5
 72
     1
  1
\A1;15.5
1001
ACAD
1000
MTEXTBEGIN
1070
    73
1070
     1
1070
    44
1040
1.0
1070
    74
1070
     0
1000
MTEXTEND
1000
MTEXTBEGIN
1070
    73
1070
     1
1070
    44
1040
1.0
1070
    74
1070
     0
1000
MTEXTEND
1000
MTEXTBEGIN
1070
    73
1070
     1
1070
    44
1040
1.0
1070
    74
1070
     0
1000
MTEXTEND
1000
MTEXTBEGIN
1070
    73
1070
     1
1070
    44
1040
1.0
1070
    74
1070
     0
1000
MTEXTEND
  0
POINT
  5
8B
330
82
100
AcDbEntity
  8
DEFPOINTS
 62
     0
100
AcDbPoint
 10
235.9587154258579
 20
-162.3347200076948
 30
0.0
  0
POINT
  5
8C
330
82
100
AcDbEntity
  8
DEFPOINTS
 62
     0
100
AcDbPoint
 10
251.4587154258578
 20
-162.3347200076948
 30
0.0
  0
POINT
  5
8D
330
82
100
AcDbEntity
  8
DEFPOINTS
 62
     0
100
AcDbPoint
 10
251.4587154258578
 20
-156.8253081829054
 30
0.0
  0
ENDBLK
  5
8F
330
82
100
AcDbEntity
  8
0
100
AcDbBlockEnd
  0
BLOCK
  5
92
330
90
100
AcDbEntity
  8
0
100
AcDbBlockBegin
  2
_OBLIQUE
 70
     0
 10
0.0
 20
0.0
 30
0.0
  3
_OBLIQUE
  1

  0
LINE
  5
91
330
90
100
AcDbEntity
  8
DIMENSION
 62
     0
100
AcDbLine
 10
-0.5
 20
-0.5
 30
0.0
 11
0.5
 21
0.5
 31
0.0
  0
ENDBLK
  5
93
330
90
100
AcDbEntity
  8
0
100
AcDbBlockEnd
  0
BLOCK
  5
A0
330
94
100
AcDbEntity
  8
0
100
AcDbBlockBegin
  2
*D10
 70
     1
 10
0.0
 20
0.0
 30
0.0
  3
*D10
  1

  0
LINE
  5
95
330
94
100
AcDbEntity
  8
DIMENSION
 62
     0
100
AcDbLine
 10
235.9587154258579
 20
-162.3347200076948
 30
0.0
 11
219.3678524379929
 21
-162.3347200076948
 31
0.0
  0
LINE
  5
96
330
94
100
AcDbEntity
  8
DIMENSION
 62
     0
100
AcDbLine
 10
235.9587154258579
 20
-165.3347200076948
 30
0.0
 11
219.3678524379929
 21
-165.3347200076948
 31
0.0
  0
LINE
  5
97
330
94
100
AcDbEntity
  8
DIMENSION
 62
     0
100
AcDbLine
 10
221.3678524379929
 20
-167.8347200076948
 30
0.0
 11
221.3678524379929
 21
-170.3347200076948
 31
0.0
  0
LINE
  5
98
330
94
100
AcDbEntity
  8
DIMENSION
 62
     0
100
AcDbLine
 10
221.3678524379929
 20
-159.8347200076948
 30
0.0
 11
221.3678524379929
 21
-148.6680533410281
 31
0.0
  0
LINE
  5
99
330
94
100
AcDbEntity
  8
DIMENSION
 62
     0
100
AcDbLine
 10
221.3678524379929
 20
-165.3347200076948
 30
0.0
 11
221.3678524379929
 21
-162.3347200076948
 31
0.0
  0
SOLID
  5
9A
330
94
100
AcDbEntity
  8
DIMENSION
 62
     0
100
AcDbTrace
 10
220.9511857713263
 20
-167.8347200076948
 30
0.0
 11
221.7845191046598
 21
-167.8347200076948
 31
0.0
 12
221.3678524379929
 22
-165.3347200076948
 32
0.0
 13
221.3678524379929
 23
-165.3347200076948
 33
0.0
  0
SOLID
  5
9B
330
94
100
AcDbEntity
  8
DIMENSION
 62
     0
100
AcDbTrace
 10
220.9511857713263
 20
-159.8347200076948
 30
0.0
 11
221.7845191046598
 21
-159.8347200076948
 31
0.0
 12
221.3678524379929
 22
-162.3347200076948
 32
0.0
 13
221.3678524379929
 23
-162.3347200076948
 33
0.0
  0
MTEXT
  5
9C
330
94
100
AcDbEntity
  8
DIMENSION
 62
     5
100
AcDbMText
 10
218.3678524379931
 20
-153.0013866743614
 30
0.0
 40
4.0
 41
0.0
 71
     5
 72
     1
  1
\A1;%%c3
 11
0.0000000000000001
 21
1.0
 31
0.0
1001
ACAD
1000
MTEXTBEGIN
1070
    73
1070
     1
1070
    44
1040
1.0
1070
    74
1070
     0
1000
MTEXTEND
1000
MTEXTBEGIN
1070
    73
1070
     1
1070
    44
1040
1.0
1070
    74
1070
     0
1000
MTEXTEND
1000
MTEXTBEGIN
1070
    73
1070
     1
1070
    44
1040
1.0
1070
    74
1070
     0
1000
MTEXTEND
1000
MTEXTBEGIN
1070
    73
1070
     1
1070
    44
1040
1.0
1070
    74
1070
     0
1000
MTEXTEND
  0
POINT
  5
9D
330
94
100
AcDbEntity
  8
DEFPOINTS
 62
     0
100
AcDbPoint
 10
235.9587154258579
 20
-162.3347200076948
 30
0.0
  0
POINT
  5
9E
330
94
100
AcDbEntity
  8
DEFPOINTS
 62
     0
100
AcDbPoint
 10
235.9587154258579
 20
-165.3347200076948
 30
0.0
  0
POINT
  5
9F
330
94
100
AcDbEntity
  8
DEFPOINTS
 62
     0
100
AcDbPoint
 10
221.3678524379929
 20
-165.3347200076948
 30
0.0
  0
ENDBLK
  5
A1
330
94
100
AcDbEntity
  8
0
100
AcDbBlockEnd
  0
BLOCK
  5
AD
330
A2
100
AcDbEntity
  8
0
100
AcDbBlockBegin
  2
*D11
 70
     1
 10
0.0
 20
0.0
 30
0.0
  3
*D11
  1

  0
LINE
  5
A3
330
A2
100
AcDbEntity
  8
DIMENSION
 62
     0
100
AcDbLine
 10
227.3333950597784
 20
-196.3802128133713
 30
0.0
 11
227.3333950597784
 21
-191.2560367281244
 31
0.0
  0
LINE
  5
A4
330
A2
100
AcDbEntity
  8
DIMENSION
 62
     0
100
AcDbLine
 10
235.5833950597784
 20
-196.8802128133713
 30
0.0
 11
235.5833950597784
 21
-191.2560367281244
 31
0.0
  0
LINE
  5
A5
330
A2
100
AcDbEntity
  8
DIMENSION
 62
     0
100
AcDbLine
 10
229.8333950597784
 20
-193.2560367281244
 30
0.0
 11
233.0833950597784
 21
-193.2560367281244
 31
0.0
  0
LINE
  5
A6
330
A2
100
AcDbEntity
  8
DIMENSION
 62
     0
100
AcDbLine
 10
235.5833950597784
 20
-193.2560367281244
 30
0.0
 11
252.0833950597784
 21
-193.2560367281244
 31
0.0
  0
SOLID
  5
A7
330
A2
100
AcDbEntity
  8
DIMENSION
 62
     0
100
AcDbTrace
 10
229.8333950597784
 20
-192.8393700614576
 30
0.0
 11
229.8333950597784
 21
-193.672703394791
 31
0.0
 12
227.3333950597784
 22
-193.2560367281244
 32
0.0
 13
227.3333950597784
 23
-193.2560367281244
 33
0.0
  0
SOLID
  5
A8
330
A2
100
AcDbEntity
  8
DIMENSION
 62
     0
100
AcDbTrace
 10
233.0833950597784
 20
-192.8393700614576
 30
0.0
 11
233.0833950597784
 21
-193.672703394791
 31
0.0
 12
235.5833950597784
 22
-193.2560367281244
 32
0.0
 13
235.5833950597784
 23
-193.2560367281244
 33
0.0
  0
MTEXT
  5
A9
330
A2
100
AcDbEntity
  8
DIMENSION
 62
     5
100
AcDbMText
 10
245.0833950597784
 20
-190.2560367281244
 30
0.0
 40
4.0
 41
0.0
 71
     5
 72
     1
  1
\A1;8.25
1001
ACAD
1000
MTEXTBEGIN
1070
    73
1070
     1
1070
    44
1040
1.0
1070
    74
1070
     0
1000
MTEXTEND
1000
MTEXTBEGIN
1070
    73
1070
     1
1070
    44
1040
1.0
1070
    74
1070
     0
1000
MTEXTEND
1000
MTEXTBEGIN
1070
    73
1070
     1
1070
    44
1040
1.0
1070
    74
1070
     0
1000
MTEXTEND
1000
MTEXTBEGIN
1070
    73
1070
     1
1070
    44
1040
1.0
1070
    74
1070
     0
1000
MTEXTEND
  0
POINT
  5
AA
330
A2
100
AcDbEntity
  8
DEFPOINTS
 62
     0
100
AcDbPoint
 10
227.3333950597784
 20
-196.3802128133713
 30
0.0
  0
POINT
  5
AB
330
A2
100
AcDbEntity
  8
DEFPOINTS
 62
     0
100
AcDbPoint
 10
235.5833950597784
 20
-196.8802128133713
 30
0.0
  0
POINT
  5
AC
330
A2
100
AcDbEntity
  8
DEFPOINTS
 62
     0
100
AcDbPoint
 10
235.5833950597784
 20
-193.2560367281244
 30
0.0
  0
ENDBLK
  5
AE
330
A2
100
AcDbEntity
  8
0
100
AcDbBlockEnd
  0
BLOCK
  5
BB
330
AF
100
AcDbEntity
  8
0
100
AcDbBlockBegin
  2
*D12
 70
     1
 10
0.0
 20
0.0
 30
0.0
  3
*D12
  1

  0
LINE
  5
B0
330
AF
100
AcDbEntity
  8
DIMENSION
 62
     0
100
AcDbLine
 10
235.5833950597784
 20
-198.8802128133713
 30
0.0
 11
235.5833950597784
 21
-210.4264955777253
 31
0.0
  0
LINE
  5
B1
330
AF
100
AcDbEntity
  8
DIMENSION
 62
     0
100
AcDbLine
 10
232.5833950597784
 20
-199.3802128133713
 30
0.0
 11
232.5833950597784
 21
-210.4264955777253
 31
0.0
  0
LINE
  5
B2
330
AF
100
AcDbEntity
  8
DIMENSION
 62
     0
100
AcDbLine
 10
230.0833950597783
 20
-208.4264955777253
 30
0.0
 11
227.5833950597784
 21
-208.4264955777253
 31
0.0
  0
LINE
  5
B3
330
AF
100
AcDbEntity
  8
DIMENSION
 62
     0
100
AcDbLine
 10
238.0833950597784
 20
-208.4264955777253
 30
0.0
 11
245.2500617264451
 21
-208.4264955777253
 31
0.0
  0
LINE
  5
B4
330
AF
100
AcDbEntity
  8
DIMENSION
 62
     0
100
AcDbLine
 10
232.5833950597784
 20
-208.4264955777253
 30
0.0
 11
235.5833950597784
 21
-208.4264955777253
 31
0.0
  0
SOLID
  5
B5
330
AF
100
AcDbEntity
  8
DIMENSION
 62
     0
100
AcDbTrace
 10
230.0833950597783
 20
-208.0098289110587
 30
0.0
 11
230.0833950597783
 21
-208.8431622443919
 31
0.0
 12
232.5833950597784
 22
-208.4264955777253
 32
0.0
 13
232.5833950597784
 23
-208.4264955777253
 33
0.0
  0
SOLID
  5
B6
330
AF
100
AcDbEntity
  8
DIMENSION
 62
     0
100
AcDbTrace
 10
238.0833950597784
 20
-208.0098289110587
 30
0.0
 11
238.0833950597784
 21
-208.8431622443919
 31
0.0
 12
235.5833950597784
 22
-208.4264955777253
 32
0.0
 13
235.5833950597784
 23
-208.4264955777253
 33
0.0
  0
MTEXT
  5
B7
330
AF
100
AcDbEntity
  8
DIMENSION
 62
     5
100
AcDbMText
 10
242.9167283931118
 20
-205.4264955777254
 30
0.0
 40
4.0
 41
0.0
 71
     5
 72
     1
  1
\A1;3
1001
ACAD
1000
MTEXTBEGIN
1070
    73
1070
     1
1070
    44
1040
1.0
1070
    74
1070
     0
1000
MTEXTEND
1000
MTEXTBEGIN
1070
    73
1070
     1
1070
    44
1040
1.0
1070
    74
1070
     0
1000
MTEXTEND
1000
MTEXTBEGIN
1070
    73
1070
     1
1070
    44
1040
1.0
1070
    74
1070
     0
1000
MTEXTEND
1000
MTEXTBEGIN
1070
    73
1070
     1
1070
    44
1040
1.0
1070
    74
1070
     0
1000
MTEXTEND
  0
POINT
  5
B8
330
AF
100
AcDbEntity
  8
DEFPOINTS
 62
     0
100
AcDbPoint
 10
235.5833950597784
 20
-198.8802128133713
 30
0.0
  0
POINT
  5
B9
330
AF
100
AcDbEntity
  8
DEFPOINTS
 62
     0
100
AcDbPoint
 10
232.5833950597784
 20
-199.3802128133713
 30
0.0
  0
POINT
  5
BA
330
AF
100
AcDbEntity
  8
DEFPOINTS
 62
     0
100
AcDbPoint
 10
232.5833950597784
 20
-208.4264955777253
 30
0.0
  0
ENDBLK
  5
BC
330
AF
100
AcDbEntity
  8
0
100
AcDbBlockEnd
  0
BLOCK
  5
C9
330
BD
100
AcDbEntity
  8
0
100
AcDbBlockBegin
  2
*D13
 70
     1
 10
0.0
 20
0.0
 30
0.0
  3
*D13
  1

  0
LINE
  5
BE
330
BD
100
AcDbEntity
  8
DIMENSION
 62
     0
100
AcDbLine
 10
235.9587154258579
 20
-165.3347200076948
 30
0.0
 11
235.9587154258579
 21
-183.1101831085789
 31
0.0
  0
LINE
  5
BF
330
BD
100
AcDbEntity
  8
DIMENSION
 62
     0
100
AcDbLine
 10
238.9587154258578
 20
-166.8347200076948
 30
0.0
 11
238.9587154258578
 21
-183.1101831085789
 31
0.0
  0
LINE
  5
C0
330
BD
100
AcDbEntity
  8
DIMENSION
 62
     0
100
AcDbLine
 10
233.4587154258577
 20
-181.1101831085789
 30
0.0
 11
230.9587154258577
 21
-181.1101831085789
 31
0.0
  0
LINE
  5
C1
330
BD
100
AcDbEntity
  8
DIMENSION
 62
     0
100
AcDbLine
 10
241.4587154258577
 20
-181.1101831085789
 30
0.0
 11
248.6253820925245
 21
-181.1101831085789
 31
0.0
  0
LINE
  5
C2
330
BD
100
AcDbEntity
  8
DIMENSION
 62
     0
100
AcDbLine
 10
235.9587154258579
 20
-181.1101831085789
 30
0.0
 11
238.9587154258578
 21
-181.1101831085789
 31
0.0
  0
SOLID
  5
C3
330
BD
100
AcDbEntity
  8
DIMENSION
 62
     0
100
AcDbTrace
 10
233.4587154258577
 20
-180.6935164419121
 30
0.0
 11
233.4587154258577
 21
-181.5268497752455
 31
0.0
 12
235.9587154258579
 22
-181.1101831085789
 32
0.0
 13
235.9587154258579
 23
-181.1101831085789
 33
0.0
  0
SOLID
  5
C4
330
BD
100
AcDbEntity
  8
DIMENSION
 62
     0
100
AcDbTrace
 10
241.4587154258577
 20
-180.6935164419121
 30
0.0
 11
241.4587154258577
 21
-181.5268497752455
 31
0.0
 12
238.9587154258578
 22
-181.1101831085789
 32
0.0
 13
238.9587154258578
 23
-181.1101831085789
 33
0.0
  0
MTEXT
  5
C5
330
BD
100
AcDbEntity
  8
DIMENSION
 62
     5
100
AcDbMText
 10
246.292048759191
 20
-178.1101831085789
 30
0.0
 40
4.0
 41
0.0
 71
     5
 72
     1
  1
\A1;3
1001
ACAD
1000
MTEXTBEGIN
1070
    73
1070
     1
1070
    44
1040
1.0
1070
    74
1070
     0
1000
MTEXTEND
1000
MTEXTBEGIN
1070
    73
1070
     1
1070
    44
1040
1.0
1070
    74
1070
     0
1000
MTEXTEND
1000
MTEXTBEGIN
1070
    73
1070
     1
1070
    44
1040
1.0
1070
    74
1070
     0
1000
MTEXTEND
1000
MTEXTBEGIN
1070
    73
1070
     1
1070
    44
1040
1.0
1070
    74
1070
     0
1000
MTEXTEND
  0
POINT
  5
C6
330
BD
100
AcDbEntity
  8
DEFPOINTS
 62
     0
100
AcDbPoint
 10
235.9587154258579
 20
-165.3347200076948
 30
0.0
  0
POINT
  5
C7
330
BD
100
AcDbEntity
  8
DEFPOINTS
 62
     0
100
AcDbPoint
 10
238.9587154258578
 20
-166.8347200076948
 30
0.0
  0
POINT
  5
C8
330
BD
100
AcDbEntity
  8
DEFPOINTS
 62
     0
100
AcDbPoint
 10
238.9587154258578
 20
-181.1101831085789
 30
0.0
  0
ENDBLK
  5
CA
330
BD
100
AcDbEntity
  8
0
100
AcDbBlockEnd
  0
BLOCK
  5
D7
330
CB
100
AcDbEntity
  8
0
100
AcDbBlockBegin
  2
*D14
 70
     1
 10
0.0
 20
0.0
 30
0.0
  3
*D14
  1

  0
LINE
  5
CC
330
CB
100
AcDbEntity
  8
DIMENSION
 62
     0
100
AcDbLine
 10
245.4587154258577
 20
-160.8347200076948
 30
0.0
 11
261.3547201945769
 21
-160.8347200076948
 31
0.0
  0
LINE
  5
CD
330
CB
100
AcDbEntity
  8
DIMENSION
 62
     0
100
AcDbLine
 10
245.4587154258577
 20
-166.8347200076948
 30
0.0
 11
261.3547201945769
 21
-166.8347200076948
 31
0.0
  0
LINE
  5
CE
330
CB
100
AcDbEntity
  8
DIMENSION
 62
     0
100
AcDbLine
 10
259.3547201945769
 20
-158.3347200076948
 30
0.0
 11
259.3547201945769
 21
-155.8347200076948
 31
0.0
  0
LINE
  5
CF
330
CB
100
AcDbEntity
  8
DIMENSION
 62
     0
100
AcDbLine
 10
259.3547201945769
 20
-169.3347200076948
 30
0.0
 11
259.3547201945769
 21
-180.5013866743615
 31
0.0
  0
LINE
  5
D0
330
CB
100
AcDbEntity
  8
DIMENSION
 62
     0
100
AcDbLine
 10
259.3547201945769
 20
-160.8347200076948
 30
0.0
 11
259.3547201945769
 21
-166.8347200076948
 31
0.0
  0
SOLID
  5
D1
330
CB
100
AcDbEntity
  8
DIMENSION
 62
     0
100
AcDbTrace
 10
258.9380535279103
 20
-158.3347200076948
 30
0.0
 11
259.7713868612435
 21
-158.3347200076948
 31
0.0
 12
259.3547201945769
 22
-160.8347200076948
 32
0.0
 13
259.3547201945769
 23
-160.8347200076948
 33
0.0
  0
SOLID
  5
D2
330
CB
100
AcDbEntity
  8
DIMENSION
 62
     0
100
AcDbTrace
 10
258.9380535279103
 20
-169.3347200076948
 30
0.0
 11
259.7713868612435
 21
-169.3347200076948
 31
0.0
 12
259.3547201945769
 22
-166.8347200076948
 32
0.0
 13
259.3547201945769
 23
-166.8347200076948
 33
0.0
  0
MTEXT
  5
D3
330
CB
100
AcDbEntity
  8
DIMENSION
 62
     5
100
AcDbMText
 10
256.3547201945771
 20
-176.1680533410279
 30
0.0
 40
4.0
 41
0.0
 71
     5
 72
     1
  1
\A1;%%c6
 11
0.0000000000000001
 21
1.0
 31
0.0
1001
ACAD
1000
MTEXTBEGIN
1070
    73
1070
     1
1070
    44
1040
1.0
1070
    74
1070
     0
1000
MTEXTEND
1000
MTEXTBEGIN
1070
    73
1070
     1
1070
    44
1040
1.0
1070
    74
1070
     0
1000
MTEXTEND
1000
MTEXTBEGIN
1070
    73
1070
     1
1070
    44
1040
1.0
1070
    74
1070
     0
1000
MTEXTEND
1000
MTEXTBEGIN
1070
    73
1070
     1
1070
    44
1040
1.0
1070
    74
1070
     0
1000
MTEXTEND
  0
POINT
  5
D4
330
CB
100
AcDbEntity
  8
DEFPOINTS
 62
     0
100
AcDbPoint
 10
245.4587154258577
 20
-160.8347200076948
 30
0.0
  0
POINT
  5
D5
330
CB
100
AcDbEntity
  8
DEFPOINTS
 62
     0
100
AcDbPoint
 10
245.4587154258577
 20
-166.8347200076948
 30
0.0
  0
POINT
  5
D6
330
CB
100
AcDbEntity
  8
DEFPOINTS
 62
     0
100
AcDbPoint
 10
259.3547201945769
 20
-166.8347200076948
 30
0.0
  0
ENDBLK
  5
D8
330
CB
100
AcDbEntity
  8
0
100
AcDbBlockEnd
  0
BLOCK
  5
E5
330
D9
100
AcDbEntity
  8
0
100
AcDbBlockBegin
  2
*D15
 70
     1
 10
0.0
 20
0.0
 30
0.0
  3
*D15
  1

  0
LINE
  5
DA
330
D9
100
AcDbEntity
  8
DIMENSION
 62
     0
100
AcDbLine
 10
269.149423986492
 20
-99.75092113344178
 30
0.0
 11
272.8500728260015
 21
-99.75092113344178
 31
0.0
  0
LINE
  5
DB
330
D9
100
AcDbEntity
  8
DIMENSION
 62
     0
100
AcDbLine
 10
257.8227554220386
 20
-109.7509211334416
 30
0.0
 11
272.8500728260015
 21
-109.7509211334416
 31
0.0
  0
LINE
  5
DC
330
D9
100
AcDbEntity
  8
DIMENSION
 62
     0
100
AcDbLine
 10
270.8500728260015
 20
-97.25092113344178
 30
0.0
 11
270.8500728260015
 21
-94.75092113344178
 31
0.0
  0
LINE
  5
DD
330
D9
100
AcDbEntity
  8
DIMENSION
 62
     0
100
AcDbLine
 10
270.8500728260015
 20
-112.2509211334417
 30
0.0
 11
270.8500728260015
 21
-114.7509211334415
 31
0.0
  0
LINE
  5
DE
330
D9
100
AcDbEntity
  8
DIMENSION
 62
     0
100
AcDbLine
 10
270.8500728260015
 20
-99.75092113344178
 30
0.0
 11
270.8500728260015
 21
-109.7509211334416
 31
0.0
  0
SOLID
  5
DF
330
D9
100
AcDbEntity
  8
DIMENSION
 62
     0
100
AcDbTrace
 10
270.4334061593348
 20
-97.25092113344178
 30
0.0
 11
271.2667394926683
 21
-97.25092113344178
 31
0.0
 12
270.8500728260015
 22
-99.75092113344178
 32
0.0
 13
270.8500728260015
 23
-99.75092113344178
 33
0.0
  0
SOLID
  5
E0
330
D9
100
AcDbEntity
  8
DIMENSION
 62
     0
100
AcDbTrace
 10
270.4334061593348
 20
-112.2509211334417
 30
0.0
 11
271.2667394926683
 21
-112.2509211334417
 31
0.0
 12
270.8500728260015
 22
-109.7509211334416
 32
0.0
 13
270.8500728260015
 23
-109.7509211334416
 33
0.0
  0
MTEXT
  5
E1
330
D9
100
AcDbEntity
  8
DIMENSION
 62
     5
100
AcDbMText
 10
267.8500728260015
 20
-106.5438552439212
 30
0.0
 40
4.0
 41
0.0
 71
     5
 72
     1
  1
\A1;10
 11
0.0000000000000001
 21
1.0
 31
0.0
1001
ACAD
1000
MTEXTBEGIN
1070
    73
1070
     1
1070
    44
1040
1.0
1070
    74
1070
     0
1000
MTEXTEND
1000
MTEXTBEGIN
1070
    73
1070
     1
1070
    44
1040
1.0
1070
    74
1070
     0
1000
MTEXTEND
1000
MTEXTBEGIN
1070
    73
1070
     1
1070
    44
1040
1.0
1070
    74
1070
     0
1000
MTEXTEND
1000
MTEXTBEGIN
1070
    73
1070
     1
1070
    44
1040
1.0
1070
    74
1070
     0
1000
MTEXTEND
  0
POINT
  5
E2
330
D9
100
AcDbEntity
  8
DEFPOINTS
 62
     0
100
AcDbPoint
 10
269.149423986492
 20
-99.75092113344178
 30
0.0
  0
POINT
  5
E3
330
D9
100
AcDbEntity
  8
DEFPOINTS
 62
     0
100
AcDbPoint
 10
257.8227554220386
 20
-109.7509211334416
 30
0.0
  0
POINT
  5
E4
330
D9
100
AcDbEntity
  8
DEFPOINTS
 62
     0
100
AcDbPoint
 10
270.8500728260015
 20
-109.7509211334416
 30
0.0
  0
ENDBLK
  5
E6
330
D9
100
AcDbEntity
  8
0
100
AcDbBlockEnd
  0
BLOCK
  5
F3
330
E7
100
AcDbEntity
  8
0
100
AcDbBlockBegin
  2
*D16
 70
     1
 10
0.0
 20
0.0
 30
0.0
  3
*D16
  1

  0
LINE
  5
E8
330
E7
100
AcDbEntity
  8
DIMENSION
 62
     0
100
AcDbLine
 10
257.8227554220386
 20
-109.7509211334416
 30
0.0
 11
265.8325963898623
 21
-109.7509211334416
 31
0.0
  0
LINE
  5
E9
330
E7
100
AcDbEntity
  8
DIMENSION
 62
     0
100
AcDbLine
 10
255.649423986492
 20
-112.7509211334416
 30
0.0
 11
265.8325963898623
 21
-112.7509211334416
 31
0.0
  0
LINE
  5
EA
330
E7
100
AcDbEntity
  8
DIMENSION
 62
     0
100
AcDbLine
 10
263.8325963898623
 20
-107.2509211334417
 30
0.0
 11
263.8325963898623
 21
-104.7509211334415
 31
0.0
  0
LINE
  5
EB
330
E7
100
AcDbEntity
  8
DIMENSION
 62
     0
100
AcDbLine
 10
263.8325963898623
 20
-115.2509211334415
 30
0.0
 11
263.8325963898623
 21
-122.4175878001082
 31
0.0
  0
LINE
  5
EC
330
E7
100
AcDbEntity
  8
DIMENSION
 62
     0
100
AcDbLine
 10
263.8325963898623
 20
-109.7509211334416
 30
0.0
 11
263.8325963898623
 21
-112.7509211334416
 31
0.0
  0
SOLID
  5
ED
330
E7
100
AcDbEntity
  8
DIMENSION
 62
     0
100
AcDbTrace
 10
263.4159297231956
 20
-107.2509211334417
 30
0.0
 11
264.249263056529
 21
-107.2509211334417
 31
0.0
 12
263.8325963898623
 22
-109.7509211334416
 32
0.0
 13
263.8325963898623
 23
-109.7509211334416
 33
0.0
  0
SOLID
  5
EE
330
E7
100
AcDbEntity
  8
DIMENSION
 62
     0
100
AcDbTrace
 10
263.4159297231956
 20
-115.2509211334415
 30
0.0
 11
264.249263056529
 21
-115.2509211334415
 31
0.0
 12
263.8325963898623
 22
-112.7509211334416
 32
0.0
 13
263.8325963898623
 23
-112.7509211334416
 33
0.0
  0
MTEXT
  5
EF
330
E7
100
AcDbEntity
  8
DIMENSION
 62
     5
100
AcDbMText
 10
260.8325963898623
 20
-120.0842544667749
 30
0.0
 40
4.0
 41
0.0
 71
     5
 72
     1
  1
\A1;3
 11
0.0000000000000001
 21
1.0
 31
0.0
1001
ACAD
1000
MTEXTBEGIN
1070
    73
1070
     1
1070
    44
1040
1.0
1070
    74
1070
     0
1000
MTEXTEND
1000
MTEXTBEGIN
1070
    73
1070
     1
1070
    44
1040
1.0
1070
    74
1070
     0
1000
MTEXTEND
1000
MTEXTBEGIN
1070
    73
1070
     1
1070
    44
1040
1.0
1070
    74
1070
     0
1000
MTEXTEND
1000
MTEXTBEGIN
1070
    73
1070
     1
1070
    44
1040
1.0
1070
    74
1070
     0
1000
MTEXTEND
  0
POINT
  5
F0
330
E7
100
AcDbEntity
  8
DEFPOINTS
 62
     0
100
AcDbPoint
 10
257.8227554220386
 20
-109.7509211334416
 30
0.0
  0
POINT
  5
F1
330
E7
100
AcDbEntity
  8
DEFPOINTS
 62
     0
100
AcDbPoint
 10
255.649423986492
 20
-112.7509211334416
 30
0.0
  0
POINT
  5
F2
330
E7
100
AcDbEntity
  8
DEFPOINTS
 62
     0
100
AcDbPoint
 10
263.8325963898623
 20
-112.7509211334416
 30
0.0
  0
ENDBLK
  5
F4
330
E7
100
AcDbEntity
  8
0
100
AcDbBlockEnd
  0
BLOCK
  5
101
330
F5
100
AcDbEntity
  8
0
100
AcDbBlockBegin
  2
*D17
 70
     1
 10
0.0
 20
0.0
 30
0.0
  3
*D17
  1

  0
LINE
  5
F6
330
F5
100
AcDbEntity
  8
DIMENSION
 62
     0
100
AcDbLine
 10
161.7365941211214
 20
-126.2509211334416
 30
0.0
 11
168.784661292548
 21
-126.2509211334416
 31
0.0
  0
LINE
  5
F7
330
F5
100
AcDbEntity
  8
DIMENSION
 62
     0
100
AcDbLine
 10
155.9865941211214
 20
-106.7509211334416
 30
0.0
 11
168.784661292548
 21
-106.7509211334416
 31
0.0
  0
LINE
  5
F8
330
F5
100
AcDbEntity
  8
DIMENSION
 62
     0
100
AcDbLine
 10
166.784661292548
 20
-128.7509211334416
 30
0.0
 11
166.784661292548
 21
-131.2509211334416
 31
0.0
  0
LINE
  5
F9
330
F5
100
AcDbEntity
  8
DIMENSION
 62
     0
100
AcDbLine
 10
166.784661292548
 20
-104.2509211334415
 30
0.0
 11
166.784661292548
 21
-101.7509211334415
 31
0.0
  0
LINE
  5
FA
330
F5
100
AcDbEntity
  8
DIMENSION
 62
     0
100
AcDbLine
 10
166.784661292548
 20
-126.2509211334416
 30
0.0
 11
166.784661292548
 21
-106.7509211334416
 31
0.0
  0
SOLID
  5
FB
330
F5
100
AcDbEntity
  8
DIMENSION
 62
     0
100
AcDbTrace
 10
166.3679946258814
 20
-128.7509211334416
 30
0.0
 11
167.2013279592148
 21
-128.7509211334416
 31
0.0
 12
166.784661292548
 22
-126.2509211334416
 32
0.0
 13
166.784661292548
 23
-126.2509211334416
 33
0.0
  0
SOLID
  5
FC
330
F5
100
AcDbEntity
  8
DIMENSION
 62
     0
100
AcDbTrace
 10
166.3679946258814
 20
-104.2509211334415
 30
0.0
 11
167.2013279592148
 21
-104.2509211334415
 31
0.0
 12
166.784661292548
 22
-106.7509211334416
 32
0.0
 13
166.784661292548
 23
-106.7509211334416
 33
0.0
  0
MTEXT
  5
FD
330
F5
100
AcDbEntity
  8
DIMENSION
 62
     5
100
AcDbMText
 10
163.784661292548
 20
-115.4430900095057
 30
0.0
 40
4.0
 41
0.0
 71
     5
 72
     1
  1
\A1;19.5
 11
0.0000000000000001
 21
1.0
 31
0.0
1001
ACAD
1000
MTEXTBEGIN
1070
    73
1070
     1
1070
    44
1040
1.0
1070
    74
1070
     0
1000
MTEXTEND
1000
MTEXTBEGIN
1070
    73
1070
     1
1070
    44
1040
1.0
1070
    74
1070
     0
1000
MTEXTEND
1000
MTEXTBEGIN
1070
    73
1070
     1
1070
    44
1040
1.0
1070
    74
1070
     0
1000
MTEXTEND
1000
MTEXTBEGIN
1070
    73
1070
     1
1070
    44
1040
1.0
1070
    74
1070
     0
1000
MTEXTEND
  0
POINT
  5
FE
330
F5
100
AcDbEntity
  8
DEFPOINTS
 62
     0
100
AcDbPoint
 10
161.7365941211214
 20
-126.2509211334416
 30
0.0
  0
POINT
  5
FF
330
F5
100
AcDbEntity
  8
DEFPOINTS
 62
     0
100
AcDbPoint
 10
155.9865941211214
 20
-106.7509211334416
 30
0.0
  0
POINT
  5
100
330
F5
100
AcDbEntity
  8
DEFPOINTS
 62
     0
100
AcDbPoint
 10
166.784661292548
 20
-106.7509211334416
 30
0.0
  0
ENDBLK
  5
102
330
F5
100
AcDbEntity
  8
0
100
AcDbBlockEnd
  0
BLOCK
  5
10F
330
103
100
AcDbEntity
  8
0
100
AcDbBlockBegin
  2
*D18
 70
     1
 10
0.0
 20
0.0
 30
0.0
  3
*D18
  1

  0
LINE
  5
104
330
103
100
AcDbEntity
  8
DIMENSION
 62
     0
100
AcDbLine
 10
242.6494239864918
 20
-112.7509211334416
 30
0.0
 11
225.6726718771998
 21
-112.7509211334416
 31
0.0
  0
LINE
  5
105
330
103
100
AcDbEntity
  8
DIMENSION
 62
     0
100
AcDbLine
 10
242.6494239864918
 20
-106.7509211334416
 30
0.0
 11
225.6726718771998
 21
-106.7509211334416
 31
0.0
  0
LINE
  5
106
330
103
100
AcDbEntity
  8
DIMENSION
 62
     0
100
AcDbLine
 10
227.6726718771998
 20
-115.2509211334415
 30
0.0
 11
227.6726718771998
 21
-117.7509211334415
 31
0.0
  0
LINE
  5
107
330
103
100
AcDbEntity
  8
DIMENSION
 62
     0
100
AcDbLine
 10
227.6726718771998
 20
-104.2509211334415
 30
0.0
 11
227.6726718771998
 21
-97.08425446677502
 31
0.0
  0
LINE
  5
108
330
103
100
AcDbEntity
  8
DIMENSION
 62
     0
100
AcDbLine
 10
227.6726718771998
 20
-112.7509211334416
 30
0.0
 11
227.6726718771998
 21
-106.7509211334416
 31
0.0
  0
SOLID
  5
109
330
103
100
AcDbEntity
  8
DIMENSION
 62
     0
100
AcDbTrace
 10
227.2560052105331
 20
-115.2509211334415
 30
0.0
 11
228.0893385438664
 21
-115.2509211334415
 31
0.0
 12
227.6726718771998
 22
-112.7509211334416
 32
0.0
 13
227.6726718771998
 23
-112.7509211334416
 33
0.0
  0
SOLID
  5
10A
330
103
100
AcDbEntity
  8
DIMENSION
 62
     0
100
AcDbTrace
 10
227.2560052105331
 20
-104.2509211334415
 30
0.0
 11
228.0893385438664
 21
-104.2509211334415
 31
0.0
 12
227.6726718771998
 22
-106.7509211334416
 32
0.0
 13
227.6726718771998
 23
-106.7509211334416
 33
0.0
  0
MTEXT
  5
10B
330
103
100
AcDbEntity
  8
DIMENSION
 62
     5
100
AcDbMText
 10
224.6726718771999
 20
-99.41758780010832
 30
0.0
 40
4.0
 41
0.0
 71
     5
 72
     1
  1
\A1;6
 11
0.0000000000000001
 21
1.0
 31
0.0
1001
ACAD
1000
MTEXTBEGIN
1070
    73
1070
     1
1070
    44
1040
1.0
1070
    74
1070
     0
1000
MTEXTEND
1000
MTEXTBEGIN
1070
    73
1070
     1
1070
    44
1040
1.0
1070
    74
1070
     0
1000
MTEXTEND
1000
MTEXTBEGIN
1070
    73
1070
     1
1070
    44
1040
1.0
1070
    74
1070
     0
1000
MTEXTEND
1000
MTEXTBEGIN
1070
    73
1070
     1
1070
    44
1040
1.0
1070
    74
1070
     0
1000
MTEXTEND
  0
POINT
  5
10C
330
103
100
AcDbEntity
  8
DEFPOINTS
 62
     0
100
AcDbPoint
 10
242.6494239864918
 20
-112.7509211334416
 30
0.0
  0
POINT
  5
10D
330
103
100
AcDbEntity
  8
DEFPOINTS
 62
     0
100
AcDbPoint
 10
242.6494239864918
 20
-106.7509211334416
 30
0.0
  0
POINT
  5
10E
330
103
100
AcDbEntity
  8
DEFPOINTS
 62
     0
100
AcDbPoint
 10
227.6726718771998
 20
-106.7509211334416
 30
0.0
  0
ENDBLK
  5
110
330
103
100
AcDbEntity
  8
0
100
AcDbBlockEnd
  0
BLOCK
  5
11C
330
111
100
AcDbEntity
  8
0
100
AcDbBlockBegin
  2
*D19
 70
     1
 10
0.0
 20
0.0
 30
0.0
  3
*D19
  1

  0
LINE
  5
112
330
111
100
AcDbEntity
  8
DIMENSION
 62
     0
100
AcDbLine
 10
245.4587154258577
 20
-166.8347200076948
 30
0.0
 11
245.4587154258577
 21
-175.1299636111045
 31
0.0
  0
LINE
  5
113
330
111
100
AcDbEntity
  8
DIMENSION
 62
     0
100
AcDbLine
 10
235.9587154258579
 20
-165.3347200076948
 30
0.0
 11
235.9587154258579
 21
-175.1299636111045
 31
0.0
  0
LINE
  5
114
330
111
100
AcDbEntity
  8
DIMENSION
 62
     0
100
AcDbLine
 10
245.4587154258577
 20
-173.1299636111045
 30
0.0
 11
238.4587154258579
 21
-173.1299636111045
 31
0.0
  0
LINE
  5
115
330
111
100
AcDbEntity
  8
DIMENSION
 62
     0
100
AcDbLine
 10
235.9587154258579
 20
-173.1299636111045
 30
0.0
 11
223.4587154258579
 21
-173.1299636111045
 31
0.0
  0
INSERT
  5
116
330
111
100
AcDbEntity
  8
DIMENSION
 62
     0
100
AcDbBlockReference
  2
_OBLIQUE
 10
245.4587154258577
 20
-173.1299636111045
 30
0.0
 41
2.5
 42
2.5
 43
2.5
  0
SOLID
  5
117
330
111
100
AcDbEntity
  8
DIMENSION
 62
     0
100
AcDbTrace
 10
238.4587154258579
 20
-172.7132969444379
 30
0.0
 11
238.4587154258579
 21
-173.5466302777711
 31
0.0
 12
235.9587154258579
 22
-173.1299636111045
 32
0.0
 13
235.9587154258579
 23
-173.1299636111045
 33
0.0
  0
MTEXT
  5
118
330
111
100
AcDbEntity
  8
DIMENSION
 62
     5
100
AcDbMText
 10
228.4587154258578
 20
-170.1299636111045
 30
0.0
 40
4.0
 41
0.0
 71
     5
 72
     1
  1
\A1;9.5
1001
ACAD
1000
MTEXTBEGIN
1070
    73
1070
     1
1070
    44
1040
1.0
1070
    74
1070
     0
1000
MTEXTEND
1000
MTEXTBEGIN
1070
    73
1070
     1
1070
    44
1040
1.0
1070
    74
1070
     0
1000
MTEXTEND
1000
MTEXTBEGIN
1070
    73
1070
     1
1070
    44
1040
1.0
1070
    74
1070
     0
1000
MTEXTEND
  0
POINT
  5
119
330
111
100
AcDbEntity
  8
DEFPOINTS
 62
     0
100
AcDbPoint
 10
245.4587154258577
 20
-166.8347200076948
 30
0.0
  0
POINT
  5
11A
330
111
100
AcDbEntity
  8
DEFPOINTS
 62
     0
100
AcDbPoint
 10
235.9587154258579
 20
-165.3347200076948
 30
0.0
  0
POINT
  5
11B
330
111
100
AcDbEntity
  8
DEFPOINTS
 62
     0
100
AcDbPoint
 10
235.9587154258579
 20
-173.1299636111045
 30
0.0
  0
ENDBLK
  5
11D
330
111
100
AcDbEntity
  8
0
100
AcDbBlockEnd
  0
BLOCK
  5
12A
330
11E
100
AcDbEntity
  8
0
100
AcDbBlockBegin
  2
*D20
 70
     1
 10
0.0
 20
0.0
 30
0.0
  3
*D20
  1

  0
LINE
  5
11F
330
11E
100
AcDbEntity
  8
DIMENSION
 62
     0
100
AcDbLine
 10
235.5833950597784
 20
-196.8802128133713
 30
0.0
 11
261.5300312915696
 21
-196.8802128133713
 31
0.0
  0
LINE
  5
120
330
11E
100
AcDbEntity
  8
DIMENSION
 62
     0
100
AcDbLine
 10
235.5833950597784
 20
-198.8802128133713
 30
0.0
 11
261.5300312915696
 21
-198.8802128133713
 31
0.0
  0
LINE
  5
121
330
11E
100
AcDbEntity
  8
DIMENSION
 62
     0
100
AcDbLine
 10
259.5300312915696
 20
-201.3802128133713
 30
0.0
 11
259.5300312915696
 21
-203.8802128133712
 31
0.0
  0
LINE
  5
122
330
11E
100
AcDbEntity
  8
DIMENSION
 62
     0
100
AcDbLine
 10
259.5300312915696
 20
-194.3802128133713
 30
0.0
 11
259.5300312915696
 21
-183.2135461467046
 31
0.0
  0
LINE
  5
123
330
11E
100
AcDbEntity
  8
DIMENSION
 62
     0
100
AcDbLine
 10
259.5300312915696
 20
-198.8802128133713
 30
0.0
 11
259.5300312915696
 21
-196.8802128133713
 31
0.0
  0
SOLID
  5
124
330
11E
100
AcDbEntity
  8
DIMENSION
 62
     0
100
AcDbTrace
 10
259.1133646249029
 20
-201.3802128133713
 30
0.0
 11
259.9466979582363
 21
-201.3802128133713
 31
0.0
 12
259.5300312915696
 22
-198.8802128133713
 32
0.0
 13
259.5300312915696
 23
-198.8802128133713
 33
0.0
  0
SOLID
  5
125
330
11E
100
AcDbEntity
  8
DIMENSION
 62
     0
100
AcDbTrace
 10
259.1133646249029
 20
-194.3802128133713
 30
0.0
 11
259.9466979582363
 21
-194.3802128133713
 31
0.0
 12
259.5300312915696
 22
-196.8802128133713
 32
0.0
 13
259.5300312915696
 23
-196.8802128133713
 33
0.0
  0
MTEXT
  5
126
330
11E
100
AcDbEntity
  8
DIMENSION
 62
     5
100
AcDbMText
 10
256.5300312915697
 20
-187.5468794800379
 30
0.0
 40
4.0
 41
0.0
 71
     5
 72
     1
  1
\A1;%%c2
 11
0.0000000000000001
 21
1.0
 31
0.0
1001
ACAD
1000
MTEXTBEGIN
1070
    73
1070
     1
1070
    44
1040
1.0
1070
    74
1070
     0
1000
MTEXTEND
1000
MTEXTBEGIN
1070
    73
1070
     1
1070
    44
1040
1.0
1070
    74
1070
     0
1000
MTEXTEND
  0
POINT
  5
127
330
11E
100
AcDbEntity
  8
DEFPOINTS
 62
     0
100
AcDbPoint
 10
235.5833950597784
 20
-196.8802128133713
 30
0.0
  0
POINT
  5
128
330
11E
100
AcDbEntity
  8
DEFPOINTS
 62
     0
100
AcDbPoint
 10
235.5833950597784
 20
-198.8802128133713
 30
0.0
  0
POINT
  5
129
330
11E
100
AcDbEntity
  8
DEFPOINTS
 62
     0
100
AcDbPoint
 10
259.5300312915696
 20
-198.8802128133713
 30
0.0
  0
ENDBLK
  5
12B
330
11E
100
AcDbEntity
  8
0
100
AcDbBlockEnd
  0
BLOCK
  5
12D
330
12C
100
AcDbEntity
  8
0
100
AcDbBlockBegin
  2
_NONE
 70
     0
 10
0.0
 20
0.0
 30
0.0
  3
_NONE
  1

  0
ENDBLK
  5
12E
330
12C
100
AcDbEntity
  8
0
100
AcDbBlockEnd
  0
BLOCK
  5
263
330
257
100
AcDbEntity
  8
0
100
AcDbBlockBegin
  2
*D23
 70
     1
 10
0.0
 20
0.0
 30
0.0
  3
*D23
  1

  0
LINE
  5
8E1
330
257
100
AcDbEntity
  8
DIMENSION
 62
     0
100
AcDbLine
 10
95.88380942968598
 20
192.4701489503658
 30
0.0
 11
102.9318766011126
 21
192.4701489503658
 31
0.0
  0
LINE
  5
8E2
330
257
100
AcDbEntity
  8
DIMENSION
 62
     0
100
AcDbLine
 10
90.13380942968598
 20
211.9701489503658
 30
0.0
 11
102.9318766011126
 21
211.9701489503658
 31
0.0
  0
LINE
  5
8E3
330
257
100
AcDbEntity
  8
DIMENSION
 62
     0
100
AcDbLine
 10
100.9318766011126
 20
194.9701489503658
 30
0.0
 11
100.9318766011126
 21
209.4701489503658
 31
0.0
  0
SOLID
  5
8E4
330
257
100
AcDbEntity
  8
DIMENSION
 62
     0
100
AcDbTrace
 10
100.515209934446
 20
194.9701489503658
 30
0.0
 11
101.3485432677793
 21
194.9701489503658
 31
0.0
 12
100.9318766011126
 22
192.4701489503658
 32
0.0
 13
100.9318766011126
 23
192.4701489503658
 33
0.0
  0
SOLID
  5
8E5
330
257
100
AcDbEntity
  8
DIMENSION
 62
     0
100
AcDbTrace
 10
100.515209934446
 20
209.4701489503658
 30
0.0
 11
101.3485432677793
 21
209.4701489503658
 31
0.0
 12
100.9318766011126
 22
211.9701489503658
 32
0.0
 13
100.9318766011126
 23
211.9701489503658
 33
0.0
  0
MTEXT
  5
8E6
330
257
100
AcDbEntity
  8
DIMENSION
 62
     5
100
AcDbMText
 10
98.44378136301742
 20
203.2779800743016
 30
0.0
 40
2.5
 41
0.0
 71
     5
 72
     1
  1
19,5
 11
0.0000000000000001
 21
1.0
 31
0.0
1001
ACAD
1000
MTEXTBEGIN
1070
    73
1070
     1
1070
    44
1040
1.0
1070
    74
1070
     0
1000
MTEXTEND
  0
POINT
  5
8E7
330
257
100
AcDbEntity
  8
DEFPOINTS
 62
     0
100
AcDbPoint
 10
95.88380942968598
 20
192.4701489503658
 30
0.0
  0
POINT
  5
8E8
330
257
100
AcDbEntity
  8
DEFPOINTS
 62
     0
100
AcDbPoint
 10
90.13380942968598
 20
211.9701489503658
 30
0.0
  0
POINT
  5
8E9
330
257
100
AcDbEntity
  8
DEFPOINTS
 62
     0
100
AcDbPoint
 10
100.9318766011126
 20
211.9701489503658
 30
0.0
  0
ENDBLK
  5
264
330
257
100
AcDbEntity
  8
0
100
AcDbBlockEnd
  0
BLOCK
  5
271
330
265
100
AcDbEntity
  8
0
100
AcDbBlockBegin
  2
*D24
 70
     1
 10
0.0
 20
0.0
 30
0.0
  3
*D24
  1

  0
LINE
  5
86E
330
265
100
AcDbEntity
  8
DIMENSION
 62
     0
100
AcDbLine
 10
156.4881739274289
 20
205.9701489503658
 30
0.0
 11
139.511421818137
 21
205.9701489503658
 31
0.0
  0
LINE
  5
86F
330
265
100
AcDbEntity
  8
DIMENSION
 62
     0
100
AcDbLine
 10
156.4881739274289
 20
211.9701489503658
 30
0.0
 11
139.511421818137
 21
211.9701489503658
 31
0.0
  0
LINE
  5
870
330
265
100
AcDbEntity
  8
DIMENSION
 62
     0
100
AcDbLine
 10
141.511421818137
 20
203.4701489503658
 30
0.0
 11
141.511421818137
 21
200.9701489503657
 31
0.0
  0
LINE
  5
871
330
265
100
AcDbEntity
  8
DIMENSION
 62
     0
100
AcDbLine
 10
141.511421818137
 20
214.4701489503658
 30
0.0
 11
141.511421818137
 21
221.0772918075086
 31
0.0
  0
LINE
  5
872
330
265
100
AcDbEntity
  8
DIMENSION
 62
     0
100
AcDbLine
 10
141.511421818137
 20
205.9701489503658
 30
0.0
 11
141.511421818137
 21
211.9701489503658
 31
0.0
  0
SOLID
  5
873
330
265
100
AcDbEntity
  8
DIMENSION
 62
     0
100
AcDbTrace
 10
141.0947551514703
 20
203.4701489503658
 30
0.0
 11
141.9280884848036
 21
203.4701489503658
 31
0.0
 12
141.511421818137
 22
205.9701489503658
 32
0.0
 13
141.511421818137
 23
205.9701489503658
 33
0.0
  0
SOLID
  5
874
330
265
100
AcDbEntity
  8
DIMENSION
 62
     0
100
AcDbTrace
 10
141.0947551514703
 20
214.4701489503658
 30
0.0
 11
141.9280884848036
 21
214.4701489503658
 31
0.0
 12
141.511421818137
 22
211.9701489503658
 32
0.0
 13
141.511421818137
 23
211.9701489503658
 33
0.0
  0
MTEXT
  5
875
330
265
100
AcDbEntity
  8
DIMENSION
 62
     5
100
AcDbMText
 10
139.2614218181369
 20
219.3034822836991
 30
0.0
 40
2.5
 41
0.0
 71
     5
 72
     1
  1
6
 11
0.0000000000000001
 21
1.0
 31
0.0
1001
ACAD
1000
MTEXTBEGIN
1070
    73
1070
     1
1070
    44
1040
1.0
1070
    74
1070
     0
1000
MTEXTEND
  0
POINT
  5
876
330
265
100
AcDbEntity
  8
DEFPOINTS
 62
     0
100
AcDbPoint
 10
156.4881739274289
 20
205.9701489503658
 30
0.0
  0
POINT
  5
877
330
265
100
AcDbEntity
  8
DEFPOINTS
 62
     0
100
AcDbPoint
 10
156.4881739274289
 20
211.9701489503658
 30
0.0
  0
POINT
  5
878
330
265
100
AcDbEntity
  8
DEFPOINTS
 62
     0
100
AcDbPoint
 10
141.511421818137
 20
211.9701489503658
 30
0.0
  0
ENDBLK
  5
272
330
265
100
AcDbEntity
  8
0
100
AcDbBlockEnd
  0
BLOCK
  5
27F
330
273
100
AcDbEntity
  8
0
100
AcDbBlockBegin
  2
*D25
 70
     1
 10
0.0
 20
0.0
 30
0.0
  3
*D25
  1

  0
LINE
  5
36A
330
273
100
AcDbEntity
  8
DIMENSION
 62
     0
100
AcDbLine
 10
191.9699707306031
 20
208.9701489503657
 30
0.0
 11
199.9798116984269
 21
208.9701489503657
 31
0.0
  0
LINE
  5
36B
330
273
100
AcDbEntity
  8
DIMENSION
 62
     0
100
AcDbLine
 10
189.7966392950565
 20
205.9701489503658
 30
0.0
 11
199.9798116984269
 21
205.9701489503657
 31
0.0
  0
LINE
  5
36C
330
273
100
AcDbEntity
  8
DIMENSION
 62
     0
100
AcDbLine
 10
197.9798116984269
 20
211.4701489503657
 30
0.0
 11
197.9798116984269
 21
213.9701489503657
 31
0.0
  0
LINE
  5
36D
330
273
100
AcDbEntity
  8
DIMENSION
 62
     0
100
AcDbLine
 10
197.9798116984269
 20
203.4701489503657
 30
0.0
 11
197.9798116984269
 21
196.3034822836991
 31
0.0
  0
LINE
  5
36E
330
273
100
AcDbEntity
  8
DIMENSION
 62
     0
100
AcDbLine
 10
197.9798116984269
 20
208.9701489503657
 30
0.0
 11
197.9798116984269
 21
205.9701489503657
 31
0.0
  0
SOLID
  5
36F
330
273
100
AcDbEntity
  8
DIMENSION
 62
     0
100
AcDbTrace
 10
197.5631450317602
 20
211.4701489503657
 30
0.0
 11
198.3964783650936
 21
211.4701489503657
 31
0.0
 12
197.9798116984269
 22
208.9701489503657
 32
0.0
 13
197.9798116984269
 23
208.9701489503657
 33
0.0
  0
SOLID
  5
370
330
273
100
AcDbEntity
  8
DIMENSION
 62
     0
100
AcDbTrace
 10
197.5631450317602
 20
203.4701489503657
 30
0.0
 11
198.3964783650936
 21
203.4701489503657
 31
0.0
 12
197.9798116984269
 22
205.9701489503657
 32
0.0
 13
197.9798116984269
 23
205.9701489503657
 33
0.0
  0
MTEXT
  5
371
330
273
100
AcDbEntity
  8
DIMENSION
 62
     5
100
AcDbMText
 10
194.9798116984268
 20
198.6368156170324
 30
0.0
 40
4.0
 41
0.0
 71
     5
 72
     1
  1
\A1;3
 11
0.0000000000000001
 21
1.0
 31
0.0
1001
ACAD
1000
MTEXTBEGIN
1070
    73
1070
     1
1070
    44
1040
1.0
1070
    74
1070
     0
1000
MTEXTEND
  0
POINT
  5
372
330
273
100
AcDbEntity
  8
DEFPOINTS
 62
     0
100
AcDbPoint
 10
191.9699707306031
 20
208.9701489503657
 30
0.0
  0
POINT
  5
373
330
273
100
AcDbEntity
  8
DEFPOINTS
 62
     0
100
AcDbPoint
 10
189.7966392950565
 20
205.9701489503658
 30
0.0
  0
POINT
  5
374
330
273
100
AcDbEntity
  8
DEFPOINTS
 62
     0
100
AcDbPoint
 10
197.9798116984269
 20
205.9701489503657
 30
0.0
  0
ENDBLK
  5
280
330
273
100
AcDbEntity
  8
0
100
AcDbBlockEnd
  0
BLOCK
  5
28B
330
281
100
AcDbEntity
  8
0
100
AcDbBlockBegin
  2
*D26
 70
     1
 10
0.0
 20
0.0
 30
0.0
  3
*D26
  1

  0
LINE
  5
8EA
330
281
100
AcDbEntity
  8
DIMENSION
 62
     0
100
AcDbLine
 10
114.1818389834861
 20
222.9701489503656
 30
0.0
 11
133.4409225222663
 21
222.9701489503656
 31
0.0
  0
LINE
  5
8EB
330
281
100
AcDbEntity
  8
DIMENSION
 62
     0
100
AcDbLine
 10
114.1818389834861
 20
192.4701489503658
 30
0.0
 11
133.4409225222663
 21
192.4701489503658
 31
0.0
  0
LINE
  5
8EC
330
281
100
AcDbEntity
  8
DIMENSION
 62
     0
100
AcDbLine
 10
131.4409225222663
 20
220.4701489503656
 30
0.0
 11
131.4409225222663
 21
194.9701489503658
 31
0.0
  0
SOLID
  5
8ED
330
281
100
AcDbEntity
  8
DIMENSION
 62
     0
100
AcDbTrace
 10
131.0242558555996
 20
220.4701489503656
 30
0.0
 11
131.8575891889329
 21
220.4701489503656
 31
0.0
 12
131.4409225222663
 22
222.9701489503656
 32
0.0
 13
131.4409225222663
 23
222.9701489503656
 33
0.0
  0
SOLID
  5
8EE
330
281
100
AcDbEntity
  8
DIMENSION
 62
     0
100
AcDbTrace
 10
131.0242558555996
 20
194.9701489503658
 30
0.0
 11
131.8575891889329
 21
194.9701489503658
 31
0.0
 12
131.4409225222663
 22
192.4701489503658
 32
0.0
 13
131.4409225222663
 23
192.4701489503658
 33
0.0
  0
MTEXT
  5
8EF
330
281
100
AcDbEntity
  8
DIMENSION
 62
     5
100
AcDbMText
 10
128.952827284171
 20
207.7201489503657
 30
0.0
 40
2.5
 41
0.0
 71
     5
 72
     1
  1
30,5
 11
0.0000000000000001
 21
1.0
 31
0.0
1001
ACAD
1000
MTEXTBEGIN
1070
    73
1070
     1
1070
    44
1040
1.0
1070
    74
1070
     0
1000
MTEXTEND
  0
POINT
  5
8F0
330
281
100
AcDbEntity
  8
DEFPOINTS
 62
     0
100
AcDbPoint
 10
114.1818389834861
 20
222.9701489503656
 30
0.0
  0
POINT
  5
8F1
330
281
100
AcDbEntity
  8
DEFPOINTS
 62
     0
100
AcDbPoint
 10
114.1818389834861
 20
192.4701489503658
 30
0.0
  0
POINT
  5
8F2
330
281
100
AcDbEntity
  8
DEFPOINTS
 62
     0
100
AcDbPoint
 10
131.4409225222663
 20
192.4701489503658
 30
0.0
  0
ENDBLK
  5
28C
330
281
100
AcDbEntity
  8
0
100
AcDbBlockEnd
  0
BLOCK
  5
297
330
28D
100
AcDbEntity
  8
0
100
AcDbBlockBegin
  2
*D27
 70
     1
 10
0.0
 20
0.0
 30
0.0
  3
*D27
  1

  0
LINE
  5
884
330
28D
100
AcDbEntity
  8
DIMENSION
 62
     0
100
AcDbLine
 10
169.4881739274291
 20
205.9701489503658
 30
0.0
 11
169.4881739274291
 21
178.3163019170643
 31
0.0
  0
LINE
  5
885
330
28D
100
AcDbEntity
  8
DIMENSION
 62
     0
100
AcDbLine
 10
153.988173927429
 20
211.7201489503656
 30
0.0
 11
153.988173927429
 21
178.3163019170643
 31
0.0
  0
LINE
  5
886
330
28D
100
AcDbEntity
  8
DIMENSION
 62
     0
100
AcDbLine
 10
166.9881739274291
 20
180.3163019170643
 30
0.0
 11
156.488173927429
 21
180.3163019170643
 31
0.0
  0
SOLID
  5
887
330
28D
100
AcDbEntity
  8
DIMENSION
 62
     0
100
AcDbTrace
 10
166.9881739274291
 20
180.732968583731
 30
0.0
 11
166.9881739274291
 21
179.8996352503977
 31
0.0
 12
169.4881739274291
 22
180.3163019170643
 32
0.0
 13
169.4881739274291
 23
180.3163019170643
 33
0.0
  0
SOLID
  5
888
330
28D
100
AcDbEntity
  8
DIMENSION
 62
     0
100
AcDbTrace
 10
156.488173927429
 20
180.732968583731
 30
0.0
 11
156.488173927429
 21
179.8996352503977
 31
0.0
 12
153.988173927429
 22
180.3163019170643
 32
0.0
 13
153.988173927429
 23
180.3163019170643
 33
0.0
  0
MTEXT
  5
889
330
28D
100
AcDbEntity
  8
DIMENSION
 62
     5
100
AcDbMText
 10
161.738173927429
 20
182.8043971551596
 30
0.0
 40
2.5
 41
0.0
 71
     5
 72
     1
  1
15,5
1001
ACAD
1000
MTEXTBEGIN
1070
    73
1070
     1
1070
    44
1040
1.0
1070
    74
1070
     0
1000
MTEXTEND
  0
POINT
  5
88A
330
28D
100
AcDbEntity
  8
DEFPOINTS
 62
     0
100
AcDbPoint
 10
169.4881739274291
 20
205.9701489503658
 30
0.0
  0
POINT
  5
88B
330
28D
100
AcDbEntity
  8
DEFPOINTS
 62
     0
100
AcDbPoint
 10
153.988173927429
 20
211.7201489503656
 30
0.0
  0
POINT
  5
88C
330
28D
100
AcDbEntity
  8
DEFPOINTS
 62
     0
100
AcDbPoint
 10
153.988173927429
 20
180.3163019170643
 30
0.0
  0
ENDBLK
  5
298
330
28D
100
AcDbEntity
  8
0
100
AcDbBlockEnd
  0
BLOCK
  5
2A5
330
299
100
AcDbEntity
  8
0
100
AcDbBlockBegin
  2
*D28
 70
     1
 10
0.0
 20
0.0
 30
0.0
  3
*D28
  1

  0
LINE
  5
8C1
330
299
100
AcDbEntity
  8
DIMENSION
 62
     0
100
AcDbLine
 10
117.3125644336638
 20
154.009286732135
 30
0.0
 11
143.2592006654551
 21
154.009286732135
 31
0.0
  0
LINE
  5
8C2
330
299
100
AcDbEntity
  8
DIMENSION
 62
     0
100
AcDbLine
 10
117.3125644336638
 20
152.009286732135
 30
0.0
 11
143.2592006654551
 21
152.009286732135
 31
0.0
  0
LINE
  5
8C3
330
299
100
AcDbEntity
  8
DIMENSION
 62
     0
100
AcDbLine
 10
141.259200665455
 20
149.509286732135
 30
0.0
 11
141.259200665455
 21
147.009286732135
 31
0.0
  0
LINE
  5
8C4
330
299
100
AcDbEntity
  8
DIMENSION
 62
     0
100
AcDbLine
 10
141.259200665455
 20
156.509286732135
 30
0.0
 11
141.259200665455
 21
166.3069057797541
 31
0.0
  0
LINE
  5
8C5
330
299
100
AcDbEntity
  8
DIMENSION
 62
     0
100
AcDbLine
 10
141.259200665455
 20
152.009286732135
 30
0.0
 11
141.259200665455
 21
154.009286732135
 31
0.0
  0
SOLID
  5
8C6
330
299
100
AcDbEntity
  8
DIMENSION
 62
     0
100
AcDbTrace
 10
140.8425339987884
 20
149.509286732135
 30
0.0
 11
141.6758673321217
 21
149.509286732135
 31
0.0
 12
141.259200665455
 22
152.009286732135
 32
0.0
 13
141.259200665455
 23
152.009286732135
 33
0.0
  0
SOLID
  5
8C7
330
299
100
AcDbEntity
  8
DIMENSION
 62
     0
100
AcDbTrace
 10
140.8425339987884
 20
156.509286732135
 30
0.0
 11
141.6758673321217
 21
156.509286732135
 31
0.0
 12
141.259200665455
 22
154.009286732135
 32
0.0
 13
141.259200665455
 23
154.009286732135
 33
0.0
  0
MTEXT
  5
8C8
330
299
100
AcDbEntity
  8
DIMENSION
 62
     5
100
AcDbMText
 10
139.009200665455
 20
163.3426200654684
 30
0.0
 40
2.5
 41
0.0
 71
     5
 72
     1
  1
%%c2
 11
0.0000000000000001
 21
1.0
 31
0.0
1001
ACAD
1000
MTEXTBEGIN
1070
    73
1070
     1
1070
    44
1040
1.0
1070
    74
1070
     0
1000
MTEXTEND
  0
POINT
  5
8C9
330
299
100
AcDbEntity
  8
DEFPOINTS
 62
     0
100
AcDbPoint
 10
117.3125644336638
 20
154.009286732135
 30
0.0
  0
POINT
  5
8CA
330
299
100
AcDbEntity
  8
DEFPOINTS
 62
     0
100
AcDbPoint
 10
117.3125644336638
 20
152.009286732135
 30
0.0
  0
POINT
  5
8CB
330
299
100
AcDbEntity
  8
DEFPOINTS
 62
     0
100
AcDbPoint
 10
141.259200665455
 20
152.009286732135
 30
0.0
  0
ENDBLK
  5
2A6
330
299
100
AcDbEntity
  8
0
100
AcDbBlockEnd
  0
BLOCK
  5
2B3
330
2A7
100
AcDbEntity
  8
0
100
AcDbBlockBegin
  2
*D29
 70
     1
 10
0.0
 20
0.0
 30
0.0
  3
*D29
  1

  0
LINE
  5
8B6
330
2A7
100
AcDbEntity
  8
DIMENSION
 62
     0
100
AcDbLine
 10
179.6059307344223
 20
157.8863500761125
 30
0.0
 11
195.5019355031417
 21
157.8863500761125
 31
0.0
  0
LINE
  5
8B7
330
2A7
100
AcDbEntity
  8
DIMENSION
 62
     0
100
AcDbLine
 10
179.6059307344222
 20
151.8863500761125
 30
0.0
 11
195.5019355031417
 21
151.8863500761125
 31
0.0
  0
LINE
  5
8B8
330
2A7
100
AcDbEntity
  8
DIMENSION
 62
     0
100
AcDbLine
 10
193.5019355031417
 20
160.3863500761125
 30
0.0
 11
193.5019355031417
 21
162.8863500761125
 31
0.0
  0
LINE
  5
8B9
330
2A7
100
AcDbEntity
  8
DIMENSION
 62
     0
100
AcDbLine
 10
193.5019355031417
 20
149.3863500761125
 30
0.0
 11
193.5019355031417
 21
139.6482548380173
 31
0.0
  0
LINE
  5
8BA
330
2A7
100
AcDbEntity
  8
DIMENSION
 62
     0
100
AcDbLine
 10
193.5019355031417
 20
157.8863500761125
 30
0.0
 11
193.5019355031417
 21
151.8863500761125
 31
0.0
  0
SOLID
  5
8BB
330
2A7
100
AcDbEntity
  8
DIMENSION
 62
     0
100
AcDbTrace
 10
193.085268836475
 20
160.3863500761125
 30
0.0
 11
193.9186021698083
 21
160.3863500761125
 31
0.0
 12
193.5019355031417
 22
157.8863500761125
 32
0.0
 13
193.5019355031417
 23
157.8863500761125
 33
0.0
  0
SOLID
  5
8BC
330
2A7
100
AcDbEntity
  8
DIMENSION
 62
     0
100
AcDbTrace
 10
193.085268836475
 20
149.3863500761125
 30
0.0
 11
193.9186021698083
 21
149.3863500761125
 31
0.0
 12
193.5019355031417
 22
151.8863500761125
 32
0.0
 13
193.5019355031417
 23
151.8863500761125
 33
0.0
  0
MTEXT
  5
8BD
330
2A7
100
AcDbEntity
  8
DIMENSION
 62
     5
100
AcDbMText
 10
191.2519355031416
 20
142.5530167427792
 30
0.0
 40
2.5
 41
0.0
 71
     5
 72
     1
  1
%%c6
 11
0.0000000000000001
 21
1.0
 31
0.0
1001
ACAD
1000
MTEXTBEGIN
1070
    73
1070
     1
1070
    44
1040
1.0
1070
    74
1070
     0
1000
MTEXTEND
  0
POINT
  5
8BE
330
2A7
100
AcDbEntity
  8
DEFPOINTS
 62
     0
100
AcDbPoint
 10
179.6059307344223
 20
157.8863500761125
 30
0.0
  0
POINT
  5
8BF
330
2A7
100
AcDbEntity
  8
DEFPOINTS
 62
     0
100
AcDbPoint
 10
179.6059307344222
 20
151.8863500761125
 30
0.0
  0
POINT
  5
8C0
330
2A7
100
AcDbEntity
  8
DEFPOINTS
 62
     0
100
AcDbPoint
 10
193.5019355031417
 20
151.8863500761125
 30
0.0
  0
ENDBLK
  5
2B4
330
2A7
100
AcDbEntity
  8
0
100
AcDbBlockEnd
  0
BLOCK
  5
2C0
330
2B5
100
AcDbEntity
  8
0
100
AcDbBlockBegin
  2
*D30
 70
     1
 10
0.0
 20
0.0
 30
0.0
  3
*D30
  1

  0
LINE
  5
8D7
330
2B5
100
AcDbEntity
  8
DIMENSION
 62
     0
100
AcDbLine
 10
109.0625644336638
 20
154.509286732135
 30
0.0
 11
109.0625644336638
 21
159.633462817382
 31
0.0
  0
LINE
  5
8D8
330
2B5
100
AcDbEntity
  8
DIMENSION
 62
     0
100
AcDbLine
 10
117.3125644336638
 20
154.009286732135
 30
0.0
 11
117.3125644336638
 21
159.633462817382
 31
0.0
  0
LINE
  5
8D9
330
2B5
100
AcDbEntity
  8
DIMENSION
 62
     0
100
AcDbLine
 10
111.5625644336637
 20
157.6334628173819
 30
0.0
 11
114.8125644336637
 21
157.6334628173819
 31
0.0
  0
LINE
  5
8DA
330
2B5
100
AcDbEntity
  8
DIMENSION
 62
     0
100
AcDbLine
 10
117.3125644336638
 20
157.6334628173819
 30
0.0
 11
131.6220882431875
 21
157.6334628173819
 31
0.0
  0
SOLID
  5
8DB
330
2B5
100
AcDbEntity
  8
DIMENSION
 62
     0
100
AcDbTrace
 10
111.5625644336637
 20
158.0501294840486
 30
0.0
 11
111.5625644336637
 21
157.2167961507153
 31
0.0
 12
109.0625644336638
 22
157.6334628173819
 32
0.0
 13
109.0625644336638
 23
157.6334628173819
 33
0.0
  0
SOLID
  5
8DC
330
2B5
100
AcDbEntity
  8
DIMENSION
 62
     0
100
AcDbTrace
 10
114.8125644336637
 20
158.0501294840486
 30
0.0
 11
114.8125644336637
 21
157.2167961507153
 31
0.0
 12
117.3125644336638
 22
157.6334628173819
 32
0.0
 13
117.3125644336638
 23
157.6334628173819
 33
0.0
  0
MTEXT
  5
8DD
330
2B5
100
AcDbEntity
  8
DIMENSION
 62
     5
100
AcDbMText
 10
126.8125644336637
 20
160.1215580554772
 30
0.0
 40
2.5
 41
0.0
 71
     5
 72
     1
  1
8,25
1001
ACAD
1000
MTEXTBEGIN
1070
    73
1070
     1
1070
    44
1040
1.0
1070
    74
1070
     0
1000
MTEXTEND
  0
POINT
  5
8DE
330
2B5
100
AcDbEntity
  8
DEFPOINTS
 62
     0
100
AcDbPoint
 10
109.0625644336638
 20
154.509286732135
 30
0.0
  0
POINT
  5
8DF
330
2B5
100
AcDbEntity
  8
DEFPOINTS
 62
     0
100
AcDbPoint
 10
117.3125644336638
 20
154.009286732135
 30
0.0
  0
POINT
  5
8E0
330
2B5
100
AcDbEntity
  8
DEFPOINTS
 62
     0
100
AcDbPoint
 10
117.3125644336638
 20
157.6334628173819
 30
0.0
  0
ENDBLK
  5
2C1
330
2B5
100
AcDbEntity
  8
0
100
AcDbBlockEnd
  0
BLOCK
  5
2CE
330
2C2
100
AcDbEntity
  8
0
100
AcDbBlockBegin
  2
*D31
 70
     1
 10
0.0
 20
0.0
 30
0.0
  3
*D31
  1

  0
LINE
  5
8CC
330
2C2
100
AcDbEntity
  8
DIMENSION
 62
     0
100
AcDbLine
 10
117.3125644336638
 20
152.009286732135
 30
0.0
 11
117.3125644336638
 21
140.4630039677811
 31
0.0
  0
LINE
  5
8CD
330
2C2
100
AcDbEntity
  8
DIMENSION
 62
     0
100
AcDbLine
 10
114.3125644336637
 20
151.509286732135
 30
0.0
 11
114.3125644336637
 21
140.4630039677811
 31
0.0
  0
LINE
  5
8CE
330
2C2
100
AcDbEntity
  8
DIMENSION
 62
     0
100
AcDbLine
 10
111.8125644336638
 20
142.4630039677811
 30
0.0
 11
109.3125644336637
 21
142.4630039677811
 31
0.0
  0
LINE
  5
8CF
330
2C2
100
AcDbEntity
  8
DIMENSION
 62
     0
100
AcDbLine
 10
119.8125644336637
 20
142.4630039677811
 30
0.0
 11
126.4792311003305
 21
142.4630039677811
 31
0.0
  0
LINE
  5
8D0
330
2C2
100
AcDbEntity
  8
DIMENSION
 62
     0
100
AcDbLine
 10
114.3125644336637
 20
142.4630039677811
 30
0.0
 11
117.3125644336638
 21
142.4630039677811
 31
0.0
  0
SOLID
  5
8D1
330
2C2
100
AcDbEntity
  8
DIMENSION
 62
     0
100
AcDbTrace
 10
111.8125644336638
 20
142.8796706344477
 30
0.0
 11
111.8125644336638
 21
142.0463373011144
 31
0.0
 12
114.3125644336637
 22
142.4630039677811
 32
0.0
 13
114.3125644336637
 23
142.4630039677811
 33
0.0
  0
SOLID
  5
8D2
330
2C2
100
AcDbEntity
  8
DIMENSION
 62
     0
100
AcDbTrace
 10
119.8125644336637
 20
142.8796706344477
 30
0.0
 11
119.8125644336637
 21
142.0463373011144
 31
0.0
 12
117.3125644336638
 22
142.4630039677811
 32
0.0
 13
117.3125644336638
 23
142.4630039677811
 33
0.0
  0
MTEXT
  5
8D3
330
2C2
100
AcDbEntity
  8
DIMENSION
 62
     5
100
AcDbMText
 10
124.6458977669971
 20
144.7130039677811
 30
0.0
 40
2.5
 41
0.0
 71
     5
 72
     1
  1
3
1001
ACAD
1000
MTEXTBEGIN
1070
    73
1070
     1
1070
    44
1040
1.0
1070
    74
1070
     0
1000
MTEXTEND
  0
POINT
  5
8D4
330
2C2
100
AcDbEntity
  8
DEFPOINTS
 62
     0
100
AcDbPoint
 10
117.3125644336638
 20
152.009286732135
 30
0.0
  0
POINT
  5
8D5
330
2C2
100
AcDbEntity
  8
DEFPOINTS
 62
     0
100
AcDbPoint
 10
114.3125644336637
 20
151.509286732135
 30
0.0
  0
POINT
  5
8D6
330
2C2
100
AcDbEntity
  8
DEFPOINTS
 62
     0
100
AcDbPoint
 10
114.3125644336637
 20
142.4630039677811
 30
0.0
  0
ENDBLK
  5
2CF
330
2C2
100
AcDbEntity
  8
0
100
AcDbBlockEnd
  0
BLOCK
  5
2DC
330
2D0
100
AcDbEntity
  8
0
100
AcDbBlockBegin
  2
*D32
 70
     1
 10
0.0
 20
0.0
 30
0.0
  3
*D32
  1

  0
LINE
  5
896
330
2D0
100
AcDbEntity
  8
DIMENSION
 62
     0
100
AcDbLine
 10
170.1059307344224
 20
156.3863500761125
 30
0.0
 11
153.5150677465576
 21
156.3863500761125
 31
0.0
  0
LINE
  5
897
330
2D0
100
AcDbEntity
  8
DIMENSION
 62
     0
100
AcDbLine
 10
170.1059307344224
 20
153.3863500761125
 30
0.0
 11
153.5150677465576
 21
153.3863500761125
 31
0.0
  0
LINE
  5
898
330
2D0
100
AcDbEntity
  8
DIMENSION
 62
     0
100
AcDbLine
 10
155.5150677465576
 20
150.8863500761125
 30
0.0
 11
155.5150677465576
 21
148.3863500761125
 31
0.0
  0
LINE
  5
899
330
2D0
100
AcDbEntity
  8
DIMENSION
 62
     0
100
AcDbLine
 10
155.5150677465576
 20
158.8863500761125
 30
0.0
 11
155.5150677465576
 21
168.6839691237316
 31
0.0
  0
LINE
  5
89A
330
2D0
100
AcDbEntity
  8
DIMENSION
 62
     0
100
AcDbLine
 10
155.5150677465576
 20
153.3863500761125
 30
0.0
 11
155.5150677465576
 21
156.3863500761125
 31
0.0
  0
SOLID
  5
89B
330
2D0
100
AcDbEntity
  8
DIMENSION
 62
     0
100
AcDbTrace
 10
155.0984010798909
 20
150.8863500761125
 30
0.0
 11
155.9317344132242
 21
150.8863500761125
 31
0.0
 12
155.5150677465576
 22
153.3863500761125
 32
0.0
 13
155.5150677465576
 23
153.3863500761125
 33
0.0
  0
SOLID
  5
89C
330
2D0
100
AcDbEntity
  8
DIMENSION
 62
     0
100
AcDbTrace
 10
155.0984010798909
 20
158.8863500761125
 30
0.0
 11
155.9317344132242
 21
158.8863500761125
 31
0.0
 12
155.5150677465576
 22
156.3863500761125
 32
0.0
 13
155.5150677465576
 23
156.3863500761125
 33
0.0
  0
MTEXT
  5
89D
330
2D0
100
AcDbEntity
  8
DIMENSION
 62
     5
100
AcDbMText
 10
153.2650677465575
 20
165.7196834094459
 30
0.0
 40
2.5
 41
0.0
 71
     5
 72
     1
  1
%%c3
 11
0.0000000000000001
 21
1.0
 31
0.0
1001
ACAD
1000
MTEXTBEGIN
1070
    73
1070
     1
1070
    44
1040
1.0
1070
    74
1070
     0
1000
MTEXTEND
  0
POINT
  5
89E
330
2D0
100
AcDbEntity
  8
DEFPOINTS
 62
     0
100
AcDbPoint
 10
170.1059307344224
 20
156.3863500761125
 30
0.0
  0
POINT
  5
89F
330
2D0
100
AcDbEntity
  8
DEFPOINTS
 62
     0
100
AcDbPoint
 10
170.1059307344224
 20
153.3863500761125
 30
0.0
  0
POINT
  5
8A0
330
2D0
100
AcDbEntity
  8
DEFPOINTS
 62
     0
100
AcDbPoint
 10
155.5150677465576
 20
153.3863500761125
 30
0.0
  0
ENDBLK
  5
2DD
330
2D0
100
AcDbEntity
  8
0
100
AcDbBlockEnd
  0
BLOCK
  5
2EA
330
2DE
100
AcDbEntity
  8
0
100
AcDbBlockBegin
  2
*D33
 70
     1
 10
0.0
 20
0.0
 30
0.0
  3
*D33
  1

  0
LINE
  5
88D
330
2DE
100
AcDbEntity
  8
DIMENSION
 62
     0
100
AcDbLine
 10
170.1059307344224
 20
156.3863500761125
 30
0.0
 11
170.1059307344224
 21
163.8957619009019
 31
0.0
  0
LINE
  5
88E
330
2DE
100
AcDbEntity
  8
DIMENSION
 62
     0
100
AcDbLine
 10
185.6059307344223
 20
156.3863500761125
 30
0.0
 11
185.6059307344223
 21
163.8957619009019
 31
0.0
  0
LINE
  5
88F
330
2DE
100
AcDbEntity
  8
DIMENSION
 62
     0
100
AcDbLine
 10
172.6059307344224
 20
161.8957619009019
 30
0.0
 11
183.1059307344223
 21
161.8957619009019
 31
0.0
  0
SOLID
  5
890
330
2DE
100
AcDbEntity
  8
DIMENSION
 62
     0
100
AcDbTrace
 10
172.6059307344224
 20
162.3124285675686
 30
0.0
 11
172.6059307344224
 21
161.4790952342353
 31
0.0
 12
170.1059307344224
 22
161.8957619009019
 32
0.0
 13
170.1059307344224
 23
161.8957619009019
 33
0.0
  0
SOLID
  5
891
330
2DE
100
AcDbEntity
  8
DIMENSION
 62
     0
100
AcDbTrace
 10
183.1059307344223
 20
162.3124285675686
 30
0.0
 11
183.1059307344223
 21
161.4790952342353
 31
0.0
 12
185.6059307344223
 22
161.8957619009019
 32
0.0
 13
185.6059307344223
 23
161.8957619009019
 33
0.0
  0
MTEXT
  5
892
330
2DE
100
AcDbEntity
  8
DIMENSION
 62
     5
100
AcDbMText
 10
178.0380571459771
 20
164.3838571389972
 30
0.0
 40
2.5
 41
0.0
 71
     5
 72
     1
  1
15,5
1001
ACAD
1000
MTEXTBEGIN
1070
    73
1070
     1
1070
    44
1040
1.0
1070
    74
1070
     0
1000
MTEXTEND
  0
POINT
  5
893
330
2DE
100
AcDbEntity
  8
DEFPOINTS
 62
     0
100
AcDbPoint
 10
170.1059307344224
 20
156.3863500761125
 30
0.0
  0
POINT
  5
894
330
2DE
100
AcDbEntity
  8
DEFPOINTS
 62
     0
100
AcDbPoint
 10
185.6059307344223
 20
156.3863500761125
 30
0.0
  0
POINT
  5
895
330
2DE
100
AcDbEntity
  8
DEFPOINTS
 62
     0
100
AcDbPoint
 10
185.6059307344223
 20
161.8957619009019
 30
0.0
  0
ENDBLK
  5
2EB
330
2DE
100
AcDbEntity
  8
0
100
AcDbBlockEnd
  0
BLOCK
  5
2F7
330
2EC
100
AcDbEntity
  8
0
100
AcDbBlockBegin
  2
*D34
 70
     1
 10
0.0
 20
0.0
 30
0.0
  3
*D34
  1

  0
LINE
  5
A01
330
2EC
100
AcDbEntity
  8
DIMENSION
 62
     0
100
AcDbLine
 10
179.6059307344223
 20
151.8863500761125
 30
0.0
 11
179.6059307344223
 21
143.5911064727028
 31
0.0
  0
LINE
  5
A02
330
2EC
100
AcDbEntity
  8
DIMENSION
 62
     0
100
AcDbLine
 10
170.1059307344224
 20
153.3863500761125
 30
0.0
 11
170.1059307344224
 21
143.5911064727028
 31
0.0
  0
LINE
  5
A03
330
2EC
100
AcDbEntity
  8
DIMENSION
 62
     0
100
AcDbLine
 10
177.1059307344223
 20
145.5911064727028
 30
0.0
 11
172.6059307344224
 21
145.5911064727028
 31
0.0
  0
LINE
  5
A04
330
2EC
100
AcDbEntity
  8
DIMENSION
 62
     0
100
AcDbLine
 10
170.1059307344224
 20
145.5911064727028
 30
0.0
 11
158.9868831153747
 21
145.5911064727028
 31
0.0
  0
SOLID
  5
A05
330
2EC
100
AcDbEntity
  8
DIMENSION
 62
     0
100
AcDbTrace
 10
177.1059307344223
 20
146.0077731393695
 30
0.0
 11
177.1059307344223
 21
145.1744398060362
 31
0.0
 12
179.6059307344223
 22
145.5911064727028
 32
0.0
 13
179.6059307344223
 23
145.5911064727028
 33
0.0
  0
SOLID
  5
A06
330
2EC
100
AcDbEntity
  8
DIMENSION
 62
     0
100
AcDbTrace
 10
172.6059307344224
 20
146.0077731393695
 30
0.0
 11
172.6059307344224
 21
145.1744398060362
 31
0.0
 12
170.1059307344224
 22
145.5911064727028
 32
0.0
 13
170.1059307344224
 23
145.5911064727028
 33
0.0
  0
MTEXT
  5
A07
330
2EC
100
AcDbEntity
  8
DIMENSION
 62
     5
100
AcDbMText
 10
162.6059307344223
 20
148.0792017107981
 30
0.0
 40
2.5
 41
0.0
 71
     5
 72
     1
  1
9,5
  0
POINT
  5
A08
330
2EC
100
AcDbEntity
  8
DEFPOINTS
 62
     0
100
AcDbPoint
 10
179.6059307344223
 20
151.8863500761125
 30
0.0
  0
POINT
  5
A09
330
2EC
100
AcDbEntity
  8
DEFPOINTS
 62
     0
100
AcDbPoint
 10
170.1059307344224
 20
153.3863500761125
 30
0.0
  0
POINT
  5
A0A
330
2EC
100
AcDbEntity
  8
DEFPOINTS
 62
     0
100
AcDbPoint
 10
170.1059307344224
 20
145.5911064727028
 30
0.0
  0
ENDBLK
  5
2F8
330
2EC
100
AcDbEntity
  8
0
100
AcDbBlockEnd
  0
BLOCK
  5
305
330
2F9
100
AcDbEntity
  8
0
100
AcDbBlockBegin
  2
*D35
 70
     1
 10
0.0
 20
0.0
 30
0.0
  3
*D35
  1

  0
LINE
  5
8AB
330
2F9
100
AcDbEntity
  8
DIMENSION
 62
     0
100
AcDbLine
 10
170.1059307344224
 20
153.3863500761125
 30
0.0
 11
170.1059307344224
 21
135.6108869752284
 31
0.0
  0
LINE
  5
8AC
330
2F9
100
AcDbEntity
  8
DIMENSION
 62
     0
100
AcDbLine
 10
173.1059307344223
 20
151.8863500761125
 30
0.0
 11
173.1059307344223
 21
135.6108869752284
 31
0.0
  0
LINE
  5
8AD
330
2F9
100
AcDbEntity
  8
DIMENSION
 62
     0
100
AcDbLine
 10
167.6059307344224
 20
137.6108869752284
 30
0.0
 11
165.1059307344224
 21
137.6108869752284
 31
0.0
  0
LINE
  5
8AE
330
2F9
100
AcDbEntity
  8
DIMENSION
 62
     0
100
AcDbLine
 10
175.6059307344223
 20
137.6108869752284
 30
0.0
 11
182.272597401089
 21
137.6108869752284
 31
0.0
  0
LINE
  5
8AF
330
2F9
100
AcDbEntity
  8
DIMENSION
 62
     0
100
AcDbLine
 10
170.1059307344224
 20
137.6108869752284
 30
0.0
 11
173.1059307344223
 21
137.6108869752284
 31
0.0
  0
SOLID
  5
8B0
330
2F9
100
AcDbEntity
  8
DIMENSION
 62
     0
100
AcDbTrace
 10
167.6059307344224
 20
138.0275536418951
 30
0.0
 11
167.6059307344224
 21
137.1942203085618
 31
0.0
 12
170.1059307344224
 22
137.6108869752284
 32
0.0
 13
170.1059307344224
 23
137.6108869752284
 33
0.0
  0
SOLID
  5
8B1
330
2F9
100
AcDbEntity
  8
DIMENSION
 62
     0
100
AcDbTrace
 10
175.6059307344223
 20
138.0275536418951
 30
0.0
 11
175.6059307344223
 21
137.1942203085618
 31
0.0
 12
173.1059307344223
 22
137.6108869752284
 32
0.0
 13
173.1059307344223
 23
137.6108869752284
 33
0.0
  0
MTEXT
  5
8B2
330
2F9
100
AcDbEntity
  8
DIMENSION
 62
     5
100
AcDbMText
 10
180.4392640677557
 20
139.8608869752284
 30
0.0
 40
2.5
 41
0.0
 71
     5
 72
     1
  1
3
1001
ACAD
1000
MTEXTBEGIN
1070
    73
1070
     1
1070
    44
1040
1.0
1070
    74
1070
     0
1000
MTEXTEND
  0
POINT
  5
8B3
330
2F9
100
AcDbEntity
  8
DEFPOINTS
 62
     0
100
AcDbPoint
 10
170.1059307344224
 20
153.3863500761125
 30
0.0
  0
POINT
  5
8B4
330
2F9
100
AcDbEntity
  8
DEFPOINTS
 62
     0
100
AcDbPoint
 10
173.1059307344223
 20
151.8863500761125
 30
0.0
  0
POINT
  5
8B5
330
2F9
100
AcDbEntity
  8
DEFPOINTS
 62
     0
100
AcDbPoint
 10
173.1059307344223
 20
137.6108869752284
 30
0.0
  0
ENDBLK
  5
306
330
2F9
100
AcDbEntity
  8
0
100
AcDbBlockEnd
  0
BLOCK
  5
313
330
307
100
AcDbEntity
  8
0
100
AcDbBlockBegin
  2
*D36
 70
     1
 10
0.0
 20
0.0
 30
0.0
  3
*D36
  1

  0
LINE
  5
879
330
307
100
AcDbEntity
  8
DIMENSION
 62
     0
100
AcDbLine
 10
148.2381739274289
 20
195.4701489503658
 30
0.0
 11
144.4297085598015
 21
195.4701489503658
 31
0.0
  0
LINE
  5
87A
330
307
100
AcDbEntity
  8
DIMENSION
 62
     0
100
AcDbLine
 10
148.2381739274289
 20
192.4701489503658
 30
0.0
 11
144.4297085598015
 21
192.4701489503658
 31
0.0
  0
LINE
  5
87B
330
307
100
AcDbEntity
  8
DIMENSION
 62
     0
100
AcDbLine
 10
146.4297085598015
 20
197.9701489503657
 30
0.0
 11
146.4297085598015
 21
200.4701489503657
 31
0.0
  0
LINE
  5
87C
330
307
100
AcDbEntity
  8
DIMENSION
 62
     0
100
AcDbLine
 10
146.4297085598015
 20
189.9701489503657
 30
0.0
 11
146.4297085598015
 21
183.8034822836991
 31
0.0
  0
LINE
  5
87D
330
307
100
AcDbEntity
  8
DIMENSION
 62
     0
100
AcDbLine
 10
146.4297085598015
 20
195.4701489503658
 30
0.0
 11
146.4297085598015
 21
192.4701489503658
 31
0.0
  0
SOLID
  5
87E
330
307
100
AcDbEntity
  8
DIMENSION
 62
     0
100
AcDbTrace
 10
146.0130418931348
 20
197.9701489503657
 30
0.0
 11
146.8463752264681
 21
197.9701489503657
 31
0.0
 12
146.4297085598015
 22
195.4701489503658
 32
0.0
 13
146.4297085598015
 23
195.4701489503658
 33
0.0
  0
SOLID
  5
87F
330
307
100
AcDbEntity
  8
DIMENSION
 62
     0
100
AcDbTrace
 10
146.0130418931348
 20
189.9701489503657
 30
0.0
 11
146.8463752264681
 21
189.9701489503657
 31
0.0
 12
146.4297085598015
 22
192.4701489503658
 32
0.0
 13
146.4297085598015
 23
192.4701489503658
 33
0.0
  0
MTEXT
  5
880
330
307
100
AcDbEntity
  8
DIMENSION
 62
     5
100
AcDbMText
 10
144.1797085598014
 20
185.6368156170324
 30
0.0
 40
2.5
 41
0.0
 71
     5
 72
     1
  1
3
 11
0.0000000000000001
 21
1.0
 31
0.0
1001
ACAD
1000
MTEXTBEGIN
1070
    73
1070
     1
1070
    44
1040
1.0
1070
    74
1070
     0
1000
MTEXTEND
  0
POINT
  5
881
330
307
100
AcDbEntity
  8
DEFPOINTS
 62
     0
100
AcDbPoint
 10
148.2381739274289
 20
195.4701489503658
 30
0.0
  0
POINT
  5
882
330
307
100
AcDbEntity
  8
DEFPOINTS
 62
     0
100
AcDbPoint
 10
148.2381739274289
 20
192.4701489503658
 30
0.0
  0
POINT
  5
883
330
307
100
AcDbEntity
  8
DEFPOINTS
 62
     0
100
AcDbPoint
 10
146.4297085598015
 20
192.4701489503658
 30
0.0
  0
ENDBLK
  5
314
330
307
100
AcDbEntity
  8
0
100
AcDbBlockEnd
  0
BLOCK
  5
321
330
315
100
AcDbEntity
  8
0
100
AcDbBlockBegin
  2
*D37
 70
     1
 10
0.0
 20
0.0
 30
0.0
  3
*D37
  1

  0
LINE
  5
3E8
330
315
100
AcDbEntity
  8
DIMENSION
 62
     0
100
AcDbLine
 10
203.2966392950565
 20
218.9701489503656
 30
0.0
 11
206.9972881345661
 21
218.9701489503656
 31
0.0
  0
LINE
  5
3E9
330
315
100
AcDbEntity
  8
DIMENSION
 62
     0
100
AcDbLine
 10
191.9699707306031
 20
208.9701489503657
 30
0.0
 11
206.9972881345661
 21
208.9701489503657
 31
0.0
  0
LINE
  5
3EA
330
315
100
AcDbEntity
  8
DIMENSION
 62
     0
100
AcDbLine
 10
204.9972881345661
 20
221.4701489503656
 30
0.0
 11
204.9972881345661
 21
223.9701489503655
 31
0.0
  0
LINE
  5
3EB
330
315
100
AcDbEntity
  8
DIMENSION
 62
     0
100
AcDbLine
 10
204.9972881345661
 20
206.4701489503657
 30
0.0
 11
204.9972881345661
 21
203.9701489503657
 31
0.0
  0
LINE
  5
3EC
330
315
100
AcDbEntity
  8
DIMENSION
 62
     0
100
AcDbLine
 10
204.9972881345661
 20
218.9701489503656
 30
0.0
 11
204.9972881345661
 21
208.9701489503657
 31
0.0
  0
SOLID
  5
3ED
330
315
100
AcDbEntity
  8
DIMENSION
 62
     0
100
AcDbTrace
 10
204.5806214678994
 20
221.4701489503656
 30
0.0
 11
205.4139548012328
 21
221.4701489503656
 31
0.0
 12
204.9972881345661
 22
218.9701489503656
 32
0.0
 13
204.9972881345661
 23
218.9701489503656
 33
0.0
  0
SOLID
  5
3EE
330
315
100
AcDbEntity
  8
DIMENSION
 62
     0
100
AcDbTrace
 10
204.5806214678994
 20
206.4701489503657
 30
0.0
 11
205.4139548012328
 21
206.4701489503657
 31
0.0
 12
204.9972881345661
 22
208.9701489503657
 32
0.0
 13
204.9972881345661
 23
208.9701489503657
 33
0.0
  0
MTEXT
  5
3EF
330
315
100
AcDbEntity
  8
DIMENSION
 62
     5
100
AcDbMText
 10
201.997288134566
 20
212.1772148398861
 30
0.0
 40
4.0
 41
0.0
 71
     5
 72
     1
  1
\A1;10
 11
0.0000000000000001
 21
1.0
 31
0.0
1001
ACAD
1000
MTEXTBEGIN
1070
    73
1070
     1
1070
    44
1040
1.0
1070
    74
1070
     0
1000
MTEXTEND
  0
POINT
  5
3F0
330
315
100
AcDbEntity
  8
DEFPOINTS
 62
     0
100
AcDbPoint
 10
203.2966392950565
 20
218.9701489503656
 30
0.0
  0
POINT
  5
3F1
330
315
100
AcDbEntity
  8
DEFPOINTS
 62
     0
100
AcDbPoint
 10
191.9699707306031
 20
208.9701489503657
 30
0.0
  0
POINT
  5
3F2
330
315
100
AcDbEntity
  8
DEFPOINTS
 62
     0
100
AcDbPoint
 10
204.9972881345661
 20
208.9701489503657
 30
0.0
  0
ENDBLK
  5
322
330
315
100
AcDbEntity
  8
0
100
AcDbBlockEnd
  0
BLOCK
  5
32D
330
323
100
AcDbEntity
  8
0
100
AcDbBlockBegin
  2
*D38
 70
     1
 10
0.0
 20
0.0
 30
0.0
  3
*D38
  1

  0
LINE
  5
85A
330
323
100
AcDbEntity
  8
DIMENSION
 62
     0
100
AcDbLine
 10
164.488173927429
 20
222.9701489503656
 30
0.0
 11
164.488173927429
 21
237.2802921504038
 31
0.0
  0
LINE
  5
85B
330
323
100
AcDbEntity
  8
DIMENSION
 62
     0
100
AcDbLine
 10
181.9881739274291
 20
222.9701489503656
 30
0.0
 11
181.9881739274291
 21
237.2802921504038
 31
0.0
  0
LINE
  5
85C
330
323
100
AcDbEntity
  8
DIMENSION
 62
     0
100
AcDbLine
 10
166.988173927429
 20
235.2802921504038
 30
0.0
 11
179.4881739274291
 21
235.2802921504038
 31
0.0
  0
SOLID
  5
85D
330
323
100
AcDbEntity
  8
DIMENSION
 62
     0
100
AcDbTrace
 10
166.988173927429
 20
235.6969588170705
 30
0.0
 11
166.988173927429
 21
234.8636254837372
 31
0.0
 12
164.488173927429
 22
235.2802921504038
 32
0.0
 13
164.488173927429
 23
235.2802921504038
 33
0.0
  0
SOLID
  5
85E
330
323
100
AcDbEntity
  8
DIMENSION
 62
     0
100
AcDbTrace
 10
179.4881739274291
 20
235.6969588170705
 30
0.0
 11
179.4881739274291
 21
234.8636254837372
 31
0.0
 12
181.9881739274291
 22
235.2802921504038
 32
0.0
 13
181.9881739274291
 23
235.2802921504038
 33
0.0
  0
MTEXT
  5
85F
330
323
100
AcDbEntity
  8
DIMENSION
 62
     5
100
AcDbMText
 10
173.2381739274291
 20
237.768387388499
 30
0.0
 40
2.5
 41
0.0
 71
     5
 72
     1
  1
17,5
1001
ACAD
1000
MTEXTBEGIN
1070
    73
1070
     1
1070
    44
1040
1.0
1070
    74
1070
     0
1000
MTEXTEND
  0
POINT
  5
860
330
323
100
AcDbEntity
  8
DEFPOINTS
 62
     0
100
AcDbPoint
 10
164.488173927429
 20
222.9701489503656
 30
0.0
  0
POINT
  5
861
330
323
100
AcDbEntity
  8
DEFPOINTS
 62
     0
100
AcDbPoint
 10
181.9881739274291
 20
222.9701489503656
 30
0.0
  0
POINT
  5
862
330
323
100
AcDbEntity
  8
DEFPOINTS
 62
     0
100
AcDbPoint
 10
181.9881739274291
 20
235.2802921504038
 30
0.0
  0
ENDBLK
  5
32E
330
323
100
AcDbEntity
  8
0
100
AcDbBlockEnd
  0
BLOCK
  5
339
330
32F
100
AcDbEntity
  8
0
100
AcDbBlockBegin
  2
*D39
 70
     1
 10
0.0
 20
0.0
 30
0.0
  3
*D39
  1

  0
LINE
  5
851
330
32F
100
AcDbEntity
  8
DIMENSION
 62
     0
100
AcDbLine
 10
169.4881739274291
 20
205.9701489503658
 30
0.0
 11
202.5193173227372
 21
205.9701489503657
 31
0.0
  0
LINE
  5
852
330
32F
100
AcDbEntity
  8
DIMENSION
 62
     0
100
AcDbLine
 10
181.9881739274291
 20
222.9701489503656
 30
0.0
 11
202.5193173227372
 21
222.9701489503656
 31
0.0
  0
LINE
  5
853
330
32F
100
AcDbEntity
  8
DIMENSION
 62
     0
100
AcDbLine
 10
200.5193173227372
 20
208.4701489503657
 30
0.0
 11
200.5193173227372
 21
220.4701489503655
 31
0.0
  0
SOLID
  5
854
330
32F
100
AcDbEntity
  8
DIMENSION
 62
     0
100
AcDbTrace
 10
200.1026506560706
 20
208.4701489503657
 30
0.0
 11
200.9359839894039
 21
208.4701489503657
 31
0.0
 12
200.5193173227372
 22
205.9701489503657
 32
0.0
 13
200.5193173227372
 23
205.9701489503657
 33
0.0
  0
SOLID
  5
855
330
32F
100
AcDbEntity
  8
DIMENSION
 62
     0
100
AcDbTrace
 10
200.1026506560706
 20
220.4701489503655
 30
0.0
 11
200.9359839894039
 21
220.4701489503655
 31
0.0
 12
200.5193173227372
 22
222.9701489503656
 32
0.0
 13
200.5193173227372
 23
222.9701489503656
 33
0.0
  0
MTEXT
  5
856
330
32F
100
AcDbEntity
  8
DIMENSION
 62
     5
100
AcDbMText
 10
198.2693173227372
 20
215.3040825802684
 30
0.0
 40
2.5
 41
0.0
 71
     5
 72
     1
  1
17
 11
0.0000000000000001
 21
1.0
 31
0.0
1001
ACAD
1000
MTEXTBEGIN
1070
    73
1070
     1
1070
    44
1040
1.0
1070
    74
1070
     0
1000
MTEXTEND
  0
POINT
  5
857
330
32F
100
AcDbEntity
  8
DEFPOINTS
 62
     0
100
AcDbPoint
 10
169.4881739274291
 20
205.9701489503658
 30
0.0
  0
POINT
  5
858
330
32F
100
AcDbEntity
  8
DEFPOINTS
 62
     0
100
AcDbPoint
 10
181.9881739274291
 20
222.9701489503656
 30
0.0
  0
POINT
  5
859
330
32F
100
AcDbEntity
  8
DEFPOINTS
 62
     0
100
AcDbPoint
 10
200.5193173227372
 20
222.9701489503656
 30
0.0
  0
ENDBLK
  5
33A
330
32F
100
AcDbEntity
  8
0
100
AcDbBlockEnd
  0
BLOCK
  5
345
330
33B
100
AcDbEntity
  8
0
100
AcDbBlockBegin
  2
*D40
 70
     1
 10
0.0
 20
0.0
 30
0.0
  3
*D40
  1

  0
LINE
  5
846
330
33B
100
AcDbEntity
  8
DIMENSION
 62
     0
100
AcDbLine
 10
181.9881739274291
 20
222.9701489503656
 30
0.0
 11
194.949517044966
 21
222.9701489503656
 31
0.0
  0
LINE
  5
847
330
33B
100
AcDbEntity
  8
DIMENSION
 62
     0
100
AcDbLine
 10
181.9881739274291
 20
214.9701489503658
 30
0.0
 11
194.949517044966
 21
214.9701489503658
 31
0.0
  0
LINE
  5
848
330
33B
100
AcDbEntity
  8
DIMENSION
 62
     0
100
AcDbLine
 10
192.949517044966
 20
225.4701489503656
 30
0.0
 11
192.949517044966
 21
227.9701489503656
 31
0.0
  0
LINE
  5
849
330
33B
100
AcDbEntity
  8
DIMENSION
 62
     0
100
AcDbLine
 10
192.949517044966
 20
212.4701489503658
 30
0.0
 11
192.949517044966
 21
209.9701489503658
 31
0.0
  0
LINE
  5
84A
330
33B
100
AcDbEntity
  8
DIMENSION
 62
     0
100
AcDbLine
 10
192.949517044966
 20
222.9701489503656
 30
0.0
 11
192.949517044966
 21
214.9701489503658
 31
0.0
  0
SOLID
  5
84B
330
33B
100
AcDbEntity
  8
DIMENSION
 62
     0
100
AcDbTrace
 10
192.5328503782993
 20
225.4701489503656
 30
0.0
 11
193.3661837116326
 21
225.4701489503656
 31
0.0
 12
192.949517044966
 22
222.9701489503656
 32
0.0
 13
192.949517044966
 23
222.9701489503656
 33
0.0
  0
SOLID
  5
84C
330
33B
100
AcDbEntity
  8
DIMENSION
 62
     0
100
AcDbTrace
 10
192.5328503782993
 20
212.4701489503658
 30
0.0
 11
193.3661837116326
 21
212.4701489503658
 31
0.0
 12
192.949517044966
 22
214.9701489503658
 32
0.0
 13
192.949517044966
 23
214.9701489503658
 33
0.0
  0
MTEXT
  5
84D
330
33B
100
AcDbEntity
  8
DIMENSION
 62
     5
100
AcDbMText
 10
190.6995170449659
 20
218.5203493616129
 30
0.0
 40
2.5
 41
0.0
 71
     5
 72
     1
  1
8
 11
0.0000000000000001
 21
1.0
 31
0.0
1001
ACAD
1000
MTEXTBEGIN
1070
    73
1070
     1
1070
    44
1040
1.0
1070
    74
1070
     0
1000
MTEXTEND
  0
POINT
  5
84E
330
33B
100
AcDbEntity
  8
DEFPOINTS
 62
     0
100
AcDbPoint
 10
181.9881739274291
 20
222.9701489503656
 30
0.0
  0
POINT
  5
84F
330
33B
100
AcDbEntity
  8
DEFPOINTS
 62
     0
100
AcDbPoint
 10
181.9881739274291
 20
214.9701489503658
 30
0.0
  0
POINT
  5
850
330
33B
100
AcDbEntity
  8
DEFPOINTS
 62
     0
100
AcDbPoint
 10
192.949517044966
 20
214.9701489503658
 30
0.0
  0
ENDBLK
  5
346
330
33B
100
AcDbEntity
  8
0
100
AcDbBlockEnd
  0
BLOCK
  5
352
330
347
100
AcDbEntity
  8
0
100
AcDbBlockBegin
  2
*D41
 70
     1
 10
0.0
 20
0.0
 30
0.0
  3
*D41
  1

  0
LINE
  5
863
330
347
100
AcDbEntity
  8
DIMENSION
 62
     0
100
AcDbLine
 10
148.2381739274289
 20
192.4701489503658
 30
0.0
 11
148.2381739274289
 21
239.4395657224631
 31
0.0
  0
LINE
  5
864
330
347
100
AcDbEntity
  8
DIMENSION
 62
     0
100
AcDbLine
 10
156.4881739274289
 20
192.4701489503658
 30
0.0
 11
156.4881739274289
 21
239.4395657224631
 31
0.0
  0
LINE
  5
865
330
347
100
AcDbEntity
  8
DIMENSION
 62
     0
100
AcDbLine
 10
145.7381739274289
 20
237.4395657224631
 30
0.0
 11
143.2381739274289
 21
237.4395657224631
 31
0.0
  0
LINE
  5
866
330
347
100
AcDbEntity
  8
DIMENSION
 62
     0
100
AcDbLine
 10
158.9881739274289
 20
237.4395657224631
 30
0.0
 11
161.4881739274289
 21
237.4395657224631
 31
0.0
  0
LINE
  5
867
330
347
100
AcDbEntity
  8
DIMENSION
 62
     0
100
AcDbLine
 10
148.2381739274289
 20
237.4395657224631
 30
0.0
 11
156.4881739274289
 21
237.4395657224631
 31
0.0
  0
SOLID
  5
868
330
347
100
AcDbEntity
  8
DIMENSION
 62
     0
100
AcDbTrace
 10
145.7381739274289
 20
237.8562323891298
 30
0.0
 11
145.7381739274289
 21
237.0228990557964
 31
0.0
 12
148.2381739274289
 22
237.4395657224631
 32
0.0
 13
148.2381739274289
 23
237.4395657224631
 33
0.0
  0
SOLID
  5
869
330
347
100
AcDbEntity
  8
DIMENSION
 62
     0
100
AcDbTrace
 10
158.9881739274289
 20
237.8562323891298
 30
0.0
 11
158.9881739274289
 21
237.0228990557964
 31
0.0
 12
156.4881739274289
 22
237.4395657224631
 32
0.0
 13
156.4881739274289
 23
237.4395657224631
 33
0.0
  0
MTEXT
  5
86A
330
347
100
AcDbEntity
  8
DIMENSION
 62
     5
100
AcDbMText
 10
151.3156150282795
 20
239.9276609605584
 30
0.0
 40
2.5
 41
0.0
 71
     5
 72
     1
  1
8,25
1001
ACAD
1000
MTEXTBEGIN
1070
    73
1070
     1
1070
    44
1040
1.0
1070
    74
1070
     0
1000
MTEXTEND
  0
POINT
  5
86B
330
347
100
AcDbEntity
  8
DEFPOINTS
 62
     0
100
AcDbPoint
 10
148.2381739274289
 20
192.4701489503658
 30
0.0
  0
POINT
  5
86C
330
347
100
AcDbEntity
  8
DEFPOINTS
 62
     0
100
AcDbPoint
 10
156.4881739274289
 20
192.4701489503658
 30
0.0
  0
POINT
  5
86D
330
347
100
AcDbEntity
  8
DEFPOINTS
 62
     0
100
AcDbPoint
 10
156.4881739274289
 20
237.4395657224631
 30
0.0
  0
ENDBLK
  5
353
330
347
100
AcDbEntity
  8
0
100
AcDbBlockEnd
  0
BLOCK
  5
581
330
577
100
AcDbEntity
  8
0
100
AcDbBlockBegin
  2
*D42
 70
     1
 10
0.0
 20
0.0
 30
0.0
  3
*D42
  1

  0
LINE
  5
8F3
330
577
100
AcDbEntity
  8
DIMENSION
 62
     0
100
AcDbLine
 10
92.51639948094179
 20
179.9583981546206
 30
0.0
 11
104.8519469852106
 21
179.9583981546206
 31
0.0
  0
LINE
  5
8F4
330
577
100
AcDbEntity
  8
DIMENSION
 62
     0
100
AcDbLine
 10
92.51639948094179
 20
160.4583981546205
 30
0.0
 11
104.8519469852106
 21
160.4583981546205
 31
0.0
  0
LINE
  5
8F5
330
577
100
AcDbEntity
  8
DIMENSION
 62
     0
100
AcDbLine
 10
102.8519469852106
 20
177.4583981546206
 30
0.0
 11
102.8519469852106
 21
162.9583981546205
 31
0.0
  0
SOLID
  5
8F6
330
577
100
AcDbEntity
  8
DIMENSION
 62
     0
100
AcDbTrace
 10
102.435280318544
 20
177.4583981546206
 30
0.0
 11
103.2686136518773
 21
177.4583981546206
 31
0.0
 12
102.8519469852106
 22
179.9583981546206
 32
0.0
 13
102.8519469852106
 23
179.9583981546206
 33
0.0
  0
SOLID
  5
8F7
330
577
100
AcDbEntity
  8
DIMENSION
 62
     0
100
AcDbTrace
 10
102.435280318544
 20
162.9583981546205
 30
0.0
 11
103.2686136518773
 21
162.9583981546205
 31
0.0
 12
102.8519469852106
 22
160.4583981546205
 32
0.0
 13
102.8519469852106
 23
160.4583981546205
 33
0.0
  0
MTEXT
  5
8F8
330
577
100
AcDbEntity
  8
DIMENSION
 62
     5
100
AcDbMText
 10
100.3638517471154
 20
170.2083981546206
 30
0.0
 40
2.5
 41
0.0
 71
     5
 72
     1
  1
19,5
 11
0.0000000000000001
 21
1.0
 31
0.0
1001
ACAD
1000
MTEXTBEGIN
1070
    73
1070
     1
1070
    44
1040
1.0
1070
    74
1070
     0
1000
MTEXTEND
  0
POINT
  5
8F9
330
577
100
AcDbEntity
  8
DEFPOINTS
 62
     0
100
AcDbPoint
 10
92.51639948094179
 20
179.9583981546206
 30
0.0
  0
POINT
  5
8FA
330
577
100
AcDbEntity
  8
DEFPOINTS
 62
     0
100
AcDbPoint
 10
92.51639948094179
 20
160.4583981546205
 30
0.0
  0
POINT
  5
8FB
330
577
100
AcDbEntity
  8
DEFPOINTS
 62
     0
100
AcDbPoint
 10
102.8519469852106
 20
160.4583981546205
 30
0.0
  0
ENDBLK
  5
582
330
577
100
AcDbEntity
  8
0
100
AcDbBlockEnd
  0
BLOCK
  5
58B
330
584
100
AcDbEntity
  8
0
100
AcDbBlockBegin
  2
*D43
 70
     1
 10
0.0
 20
0.0
 30
0.0
  3
*D43
  1

  0
LINE
  5
682
330
584
100
AcDbEntity
  8
DIMENSION
 62
     0
100
AcDbLine
 10
84.50795791174247
 20
188.6442574759184
 30
0.0
 11
89.40723981289966
 21
181.4952611852421
 31
0.0
  0
MTEXT
  5
683
330
584
100
AcDbEntity
  8
DIMENSION
 62
     5
100
AcDbMText
 10
88.10696108665666
 20
187.3727935199205
 30
0.0
 40
2.5
 41
0.0
 71
     5
 72
     1
  1
R3
 11
0.56530175782583
 21
-0.8248841873857363
 31
0.0
1001
ACAD
1000
MTEXTBEGIN
1070
    73
1070
     1
1070
    44
1040
1.0
1070
    74
1070
     0
1000
MTEXTEND
  0
LINE
  5
684
330
584
100
AcDbEntity
  8
DIMENSION
 62
     0
100
AcDbLine
 10
92.51639948094165
 20
176.9583981546206
 30
0.0
 11
90.82049420746423
 21
179.4330507167777
 31
0.0
  0
SOLID
  5
685
330
584
100
AcDbEntity
  8
DIMENSION
 62
     0
100
AcDbTrace
 10
89.7509415576437
 20
181.7308035843361
 30
0.0
 11
89.06353806815562
 21
181.259718786148
 31
0.0
 12
90.82049420746423
 22
179.4330507167777
 32
0.0
 13
90.82049420746423
 23
179.4330507167777
 33
0.0
  0
POINT
  5
686
330
584
100
AcDbEntity
  8
DEFPOINTS
 62
     0
100
AcDbPoint
 10
90.82049420746423
 20
179.4330507167777
 30
0.0
  0
POINT
  5
687
330
584
100
AcDbEntity
  8
DEFPOINTS
 62
     0
100
AcDbPoint
 10
92.51639948094165
 20
176.9583981546206
 30
0.0
  0
ENDBLK
  5
58C
330
584
100
AcDbEntity
  8
0
100
AcDbBlockEnd
  0
BLOCK
  5
595
330
58E
100
AcDbEntity
  8
0
100
AcDbBlockBegin
  2
*D44
 70
     1
 10
0.0
 20
0.0
 30
0.0
  3
*D44
  1

  0
LINE
  5
8FC
330
58E
100
AcDbEntity
  8
DIMENSION
 62
     0
100
AcDbLine
 10
86.28532269371143
 20
147.4804382225377
 30
0.0
 11
90.93509902738485
 21
158.2842330963276
 31
0.0
  0
MTEXT
  5
8FD
330
58E
100
AcDbEntity
  8
DIMENSION
 62
     5
100
AcDbMText
 10
85.83063632243295
 20
152.7177656108394
 30
0.0
 40
2.5
 41
0.0
 71
     5
 72
     1
  1
R1,5
 11
0.395325113389237
 21
0.9185412645732291
 31
0.0
1001
ACAD
1000
MTEXTBEGIN
1070
    73
1070
     1
1070
    44
1040
1.0
1070
    74
1070
     0
1000
MTEXTEND
  0
LINE
  5
8FE
330
58E
100
AcDbEntity
  8
DIMENSION
 62
     0
100
AcDbLine
 10
92.51639948094185
 20
161.9583981546206
 30
0.0
 11
91.92341181085794
 21
160.5805862577607
 31
0.0
  0
SOLID
  5
8FF
330
58E
100
AcDbEntity
  8
DIMENSION
 62
     0
100
AcDbTrace
 10
90.55237350047933
 20
158.4489518935731
 30
0.0
 11
91.31782455429036
 21
158.1195142990821
 31
0.0
 12
91.92341181085794
 22
160.5805862577607
 32
0.0
 13
91.92341181085794
 23
160.5805862577607
 33
0.0
  0
POINT
  5
900
330
58E
100
AcDbEntity
  8
DEFPOINTS
 62
     0
100
AcDbPoint
 10
91.92341181085794
 20
160.5805862577607
 30
0.0
  0
POINT
  5
901
330
58E
100
AcDbEntity
  8
DEFPOINTS
 62
     0
100
AcDbPoint
 10
92.51639948094185
 20
161.9583981546206
 30
0.0
  0
ENDBLK
  5
596
330
58E
100
AcDbEntity
  8
0
100
AcDbBlockEnd
  0
BLOCK
  5
59F
330
598
100
AcDbEntity
  8
0
100
AcDbBlockBegin
  2
*D45
 70
     1
 10
0.0
 20
0.0
 30
0.0
  3
*D45
  1

  0
LINE
  5
68E
330
598
100
AcDbEntity
  8
DIMENSION
 62
     0
100
AcDbLine
 10
63.05304588537432
 20
187.7456081701907
 30
0.0
 11
67.09691184248462
 21
179.9458694802647
 31
0.0
  0
MTEXT
  5
68F
330
598
100
AcDbEntity
  8
DIMENSION
 62
     5
100
AcDbMText
 10
66.49712613615093
 20
185.9910819530544
 30
0.0
 40
2.5
 41
0.0
 71
     5
 72
     1
  1
R4
 11
0.4602774260125534
 21
-0.8877751354387317
 31
0.0
1001
ACAD
1000
MTEXTBEGIN
1070
    73
1070
     1
1070
    44
1040
1.0
1070
    74
1070
     0
1000
MTEXTEND
  0
LINE
  5
690
330
598
100
AcDbEntity
  8
DIMENSION
 62
     0
100
AcDbLine
 10
70.08871511156624
 20
174.1753310999129
 30
0.0
 11
68.24760540751601
 21
177.7264316416679
 31
0.0
  0
SOLID
  5
691
330
598
100
AcDbEntity
  8
DIMENSION
 62
     0
100
AcDbTrace
 10
67.46681814891741
 20
180.1376517411033
 30
0.0
 11
66.72700553605181
 21
179.7540872194262
 31
0.0
 12
68.24760540751601
 22
177.7264316416679
 32
0.0
 13
68.24760540751601
 23
177.7264316416679
 33
0.0
  0
POINT
  5
692
330
598
100
AcDbEntity
  8
DEFPOINTS
 62
     0
100
AcDbPoint
 10
68.24760540751601
 20
177.7264316416679
 30
0.0
  0
POINT
  5
693
330
598
100
AcDbEntity
  8
DEFPOINTS
 62
     0
100
AcDbPoint
 10
70.08871511156624
 20
174.1753310999129
 30
0.0
  0
ENDBLK
  5
5A0
330
598
100
AcDbEntity
  8
0
100
AcDbBlockEnd
  0
BLOCK
  5
5A9
330
5A2
100
AcDbEntity
  8
0
100
AcDbBlockBegin
  2
*D46
 70
     1
 10
0.0
 20
0.0
 30
0.0
  3
*D46
  1

  0
LINE
  5
902
330
5A2
100
AcDbEntity
  8
DIMENSION
 62
     0
100
AcDbLine
 10
66.10779185111347
 20
150.5794973837033
 30
0.0
 11
68.54318019868457
 21
158.8969485983259
 31
0.0
  0
MTEXT
  5
903
330
5A2
100
AcDbEntity
  8
DIMENSION
 62
     5
100
AcDbMText
 10
64.81488979404923
 20
154.1708548868327
 30
0.0
 40
2.5
 41
0.0
 71
     5
 72
     1
  1
R3
 11
0.2810063477966629
 21
0.9597059093795248
 31
0.0
1001
ACAD
1000
MTEXTBEGIN
1070
    73
1070
     1
1070
    44
1040
1.0
1070
    74
1070
     0
1000
MTEXTEND
  0
LINE
  5
904
330
5A2
100
AcDbEntity
  8
DIMENSION
 62
     0
100
AcDbLine
 10
70.08871511156616
 20
164.1753310999131
 30
0.0
 11
69.24569606817621
 21
161.2962133717747
 31
0.0
  0
SOLID
  5
905
330
5A2
100
AcDbEntity
  8
DIMENSION
 62
     0
100
AcDbTrace
 10
68.14330273644308
 20
159.0140345765745
 30
0.0
 11
68.94305766092603
 21
158.7798626200773
 31
0.0
 12
69.24569606817621
 22
161.2962133717747
 32
0.0
 13
69.24569606817621
 23
161.2962133717747
 33
0.0
  0
POINT
  5
906
330
5A2
100
AcDbEntity
  8
DEFPOINTS
 62
     0
100
AcDbPoint
 10
69.24569606817621
 20
161.2962133717747
 30
0.0
  0
POINT
  5
907
330
5A2
100
AcDbEntity
  8
DEFPOINTS
 62
     0
100
AcDbPoint
 10
70.08871511156616
 20
164.1753310999131
 30
0.0
  0
ENDBLK
  5
5AA
330
5A2
100
AcDbEntity
  8
0
100
AcDbBlockEnd
  0
BLOCK
  5
5B5
330
5AC
100
AcDbEntity
  8
0
100
AcDbBlockBegin
  2
*D47
 70
     1
 10
0.0
 20
0.0
 30
0.0
  3
*D47
  1

  0
LINE
  5
5AD
330
5AC
100
AcDbEntity
  8
DIMENSION
 62
     0
100
AcDbLine
 10
54.98243333458741
 20
166.5612742321434
 30
0.0
 11
65.40055869802109
 21
171.8123479340535
 31
0.0
  0
LINE
  5
5AE
330
5AC
100
AcDbEntity
  8
DIMENSION
 62
     0
100
AcDbLine
 10
74.77687152511139
 20
176.5383142657725
 30
0.0
 11
77.00932696013289
 21
177.6635443447532
 31
0.0
  0
MTEXT
  5
5AF
330
5AC
100
AcDbEntity
  8
DIMENSION
 62
     5
100
AcDbMText
 10
58.13757656630954
 20
170.4845755727927
 30
0.0
 40
2.5
 41
0.0
 71
     5
 72
     1
  1
\U+22055,5
 11
0.8929821740086
 21
0.4500920315922893
 31
0.0
1001
ACAD
1000
MTEXTBEGIN
1070
    73
1070
     1
1070
    44
1040
1.0
1070
    74
1070
     0
1000
MTEXTEND
  0
LINE
  5
5B0
330
5AC
100
AcDbEntity
  8
DIMENSION
 62
     0
100
AcDbLine
 10
72.54441609008988
 20
175.4130841867918
 30
0.0
 11
67.63301413304256
 21
172.9375780130342
 31
0.0
  0
SOLID
  5
5B1
330
5AC
100
AcDbEntity
  8
DIMENSION
 62
     0
100
AcDbTrace
 10
74.58933317861459
 20
176.9103901716094
 30
0.0
 11
74.96440987160818
 21
176.1662383599356
 31
0.0
 12
72.54441609008988
 22
175.4130841867918
 32
0.0
 13
72.54441609008988
 23
175.4130841867918
 33
0.0
  0
SOLID
  5
5B2
330
5AC
100
AcDbEntity
  8
DIMENSION
 62
     0
100
AcDbTrace
 10
65.21302035152428
 20
172.1844238398904
 30
0.0
 11
65.58809704451786
 21
171.4402720282166
 31
0.0
 12
67.63301413304256
 22
172.9375780130342
 32
0.0
 13
67.63301413304256
 23
172.9375780130342
 33
0.0
  0
POINT
  5
5B3
330
5AC
100
AcDbEntity
  8
DEFPOINTS
 62
     0
100
AcDbPoint
 10
67.63301413304256
 20
172.9375780130342
 30
0.0
  0
POINT
  5
5B4
330
5AC
100
AcDbEntity
  8
DEFPOINTS
 62
     0
100
AcDbPoint
 10
72.54441609008988
 20
175.4130841867918
 30
0.0
  0
ENDBLK
  5
5B6
330
5AC
100
AcDbEntity
  8
0
100
AcDbBlockEnd
  0
BLOCK
  5
5C2
330
5B9
100
AcDbEntity
  8
0
100
AcDbBlockBegin
  2
*D48
 70
     1
 10
0.0
 20
0.0
 30
0.0
  3
*D48
  1

  0
LINE
  5
908
330
5B9
100
AcDbEntity
  8
DIMENSION
 62
     0
100
AcDbLine
 10
57.27413951845702
 20
170.161208159502
 30
0.0
 11
65.31733058221707
 21
172.6807108561429
 31
0.0
  0
LINE
  5
909
330
5B9
100
AcDbEntity
  8
DIMENSION
 62
     0
100
AcDbLine
 10
74.86009964091543
 20
175.669951343683
 30
0.0
 11
77.24579190559002
 21
176.417261465568
 31
0.0
  0
MTEXT
  5
90A
330
5B9
100
AcDbEntity
  8
DIMENSION
 62
     5
100
AcDbMText
 10
59.43030980830322
 20
173.194427485087
 30
0.0
 40
2.5
 41
0.0
 71
     5
 72
     1
  1
\U+22055
 11
0.9542769058698375
 21
0.2989240487540093
 31
0.0
1001
ACAD
1000
MTEXTBEGIN
1070
    73
1070
     1
1070
    44
1040
1.0
1070
    74
1070
     0
1000
MTEXTEND
  0
LINE
  5
90B
330
5B9
100
AcDbEntity
  8
DIMENSION
 62
     0
100
AcDbLine
 10
72.47440737624083
 20
174.922641221798
 30
0.0
 11
67.70302284689165
 21
173.4280209780279
 31
0.0
  0
SOLID
  5
90C
330
5B9
100
AcDbEntity
  8
DIMENSION
 62
     0
100
AcDbTrace
 10
74.7355479539346
 20
176.0675667211287
 30
0.0
 11
74.98465132789627
 21
175.2723359662372
 31
0.0
 12
72.47440737624083
 22
174.922641221798
 32
0.0
 13
72.47440737624083
 23
174.922641221798
 33
0.0
  0
SOLID
  5
90D
330
5B9
100
AcDbEntity
  8
DIMENSION
 62
     0
100
AcDbTrace
 10
65.19277889523623
 20
173.0783262335887
 30
0.0
 11
65.44188226919789
 21
172.2830954786972
 31
0.0
 12
67.70302284689165
 22
173.4280209780279
 32
0.0
 13
67.70302284689165
 23
173.4280209780279
 33
0.0
  0
POINT
  5
90E
330
5B9
100
AcDbEntity
  8
DEFPOINTS
 62
     0
100
AcDbPoint
 10
67.70302284689165
 20
173.4280209780279
 30
0.0
  0
POINT
  5
90F
330
5B9
100
AcDbEntity
  8
DEFPOINTS
 62
     0
100
AcDbPoint
 10
72.47440737624083
 20
174.922641221798
 30
0.0
  0
ENDBLK
  5
5C3
330
5B9
100
AcDbEntity
  8
0
100
AcDbBlockEnd
  0
BLOCK
  5
6B0
330
6AC
100
AcDbEntity
  8
0
100
AcDbBlockBegin
  2
_OPEN
 70
     0
 10
0.0
 20
0.0
 30
0.0
  3
_OPEN
  1

  0
LINE
  5
6AD
330
6AC
100
AcDbEntity
  8
DIMENSION
 62
     0
100
AcDbLine
 10
-1.0
 20
0.1666666666666666
 30
0.0
 11
0.0
 21
0.0
 31
0.0
  0
LINE
  5
6AE
330
6AC
100
AcDbEntity
  8
DIMENSION
 62
     0
100
AcDbLine
 10
-1.0
 20
-0.1666666666666666
 30
0.0
 11
0.0
 21
0.0
 31
0.0
  0
LINE
  5
6AF
330
6AC
100
AcDbEntity
  8
DIMENSION
 62
     0
100
AcDbLine
 10
0.0
 20
0.0
 30
0.0
 11
-1.0
 21
0.0
 31
0.0
  0
ENDBLK
  5
6B1
330
6AC
100
AcDbEntity
  8
0
100
AcDbBlockEnd
  0
BLOCK
  5
6F3
330
6EA
100
AcDbEntity
  8
0
100
AcDbBlockBegin
  2
*D50
 70
     1
 10
0.0
 20
0.0
 30
0.0
  3
*D50
  1

  0
LINE
  5
910
330
6EA
100
AcDbEntity
  8
DIMENSION
 62
     0
100
AcDbLine
 10
82.36318921527987
 20
169.7902945660583
 30
0.0
 11
89.24869962532648
 21
174.6514222870374
 31
0.0
  0
LINE
  5
911
330
6EA
100
AcDbEntity
  8
DIMENSION
 62
     0
100
AcDbLine
 10
95.78409933655715
 20
179.2653740222039
 30
0.0
 11
97.82641174631672
 21
180.7072339394434
 31
0.0
  0
MTEXT
  5
912
330
6EA
100
AcDbEntity
  8
DIMENSION
 62
     5
100
AcDbMText
 10
83.4871142899078
 20
173.3380096367117
 30
0.0
 40
2.5
 41
0.0
 71
     5
 72
     1
  1
\U+22053
 11
0.816924963903833
 21
0.5767439668958153
 31
0.0
1001
ACAD
1000
MTEXTBEGIN
1070
    73
1070
     1
1070
    44
1040
1.0
1070
    74
1070
     0
1000
MTEXTEND
  0
LINE
  5
913
330
6EA
100
AcDbEntity
  8
DIMENSION
 62
     0
100
AcDbLine
 10
93.74178692679754
 20
177.8235141049643
 30
0.0
 11
91.29101203508605
 21
176.0932822042769
 31
0.0
  0
SOLID
  5
914
330
6EA
100
AcDbEntity
  8
DIMENSION
 62
     0
100
AcDbTrace
 10
95.54378935035055
 20
179.6057594238305
 30
0.0
 11
96.02440932276373
 21
178.9249886205773
 31
0.0
 12
93.74178692679754
 22
177.8235141049643
 32
0.0
 13
93.74178692679754
 23
177.8235141049643
 33
0.0
  0
SOLID
  5
915
330
6EA
100
AcDbEntity
  8
DIMENSION
 62
     0
100
AcDbTrace
 10
89.00838963911988
 20
174.9918076886639
 30
0.0
 11
89.48900961153308
 21
174.3110368854107
 31
0.0
 12
91.29101203508605
 22
176.0932822042769
 32
0.0
 13
91.29101203508605
 23
176.0932822042769
 33
0.0
  0
POINT
  5
916
330
6EA
100
AcDbEntity
  8
DEFPOINTS
 62
     0
100
AcDbPoint
 10
91.29101203508605
 20
176.0932822042769
 30
0.0
  0
POINT
  5
917
330
6EA
100
AcDbEntity
  8
DEFPOINTS
 62
     0
100
AcDbPoint
 10
93.74178692679754
 20
177.8235141049643
 30
0.0
  0
ENDBLK
  5
6F4
330
6EA
100
AcDbEntity
  8
0
100
AcDbBlockEnd
  0
BLOCK
  5
6FF
330
6F6
100
AcDbEntity
  8
0
100
AcDbBlockBegin
  2
*D51
 70
     1
 10
0.0
 20
0.0
 30
0.0
  3
*D51
  1

  0
LINE
  5
918
330
6F6
100
AcDbEntity
  8
DIMENSION
 62
     0
100
AcDbLine
 10
100.6982852431629
 20
153.2781008267351
 30
0.0
 11
94.91707254889888
 21
159.4114845673966
 31
0.0
  0
LINE
  5
919
330
6F6
100
AcDbEntity
  8
DIMENSION
 62
     0
100
AcDbLine
 10
90.11572641298469
 20
164.5053117418443
 30
0.0
 11
88.40095993587249
 21
166.3245357327185
 31
0.0
  0
MTEXT
  5
91A
330
6F6
100
AcDbEntity
  8
DIMENSION
 62
     5
100
AcDbMText
 10
100.3023637263737
 20
156.9784705310298
 30
0.0
 40
2.5
 41
0.0
 71
     5
 72
     1
  1
\U+22052
 11
0.6859065908448836
 21
-0.7276895963496726
 31
0.0
1001
ACAD
1000
MTEXTBEGIN
1070
    73
1070
     1
1070
    44
1040
1.0
1070
    74
1070
     0
1000
MTEXTEND
  0
LINE
  5
91B
330
6F6
100
AcDbEntity
  8
DIMENSION
 62
     0
100
AcDbLine
 10
91.83049289009691
 20
162.6860877509702
 30
0.0
 11
93.20230607178668
 21
161.2307085582708
 31
0.0
  0
SOLID
  5
91C
330
6F6
100
AcDbEntity
  8
DIMENSION
 62
     0
100
AcDbTrace
 10
90.41893041146371
 20
164.7911061546964
 30
0.0
 11
89.81252241450567
 21
164.2195173289923
 31
0.0
 12
91.83049289009691
 22
162.6860877509702
 32
0.0
 13
91.83049289009691
 23
162.6860877509702
 33
0.0
  0
SOLID
  5
91D
330
6F6
100
AcDbEntity
  8
DIMENSION
 62
     0
100
AcDbTrace
 10
95.22027654737792
 20
159.6972789802487
 30
0.0
 11
94.61386855041988
 21
159.1256901545446
 31
0.0
 12
93.20230607178668
 22
161.2307085582708
 32
0.0
 13
93.20230607178668
 23
161.2307085582708
 33
0.0
  0
POINT
  5
91E
330
6F6
100
AcDbEntity
  8
DEFPOINTS
 62
     0
100
AcDbPoint
 10
93.20230607178668
 20
161.2307085582708
 30
0.0
  0
POINT
  5
91F
330
6F6
100
AcDbEntity
  8
DEFPOINTS
 62
     0
100
AcDbPoint
 10
91.83049289009691
 20
162.6860877509702
 30
0.0
  0
ENDBLK
  5
700
330
6F6
100
AcDbEntity
  8
0
100
AcDbBlockEnd
  0
BLOCK
  5
7A5
330
799
100
AcDbEntity
  8
0
100
AcDbBlockBegin
  2
*D52
 70
     1
 10
0.0
 20
0.0
 30
0.0
  3
*D52
  1

  0
LINE
  5
A0B
330
799
100
AcDbEntity
  8
DIMENSION
 62
     0
100
AcDbLine
 10
74.06803649174711
 20
173.7691275139673
 30
0.0
 11
76.26303963547113
 21
195.2721945512737
 31
0.0
  0
LINE
  5
A0C
330
799
100
AcDbEntity
  8
DIMENSION
 62
     0
100
AcDbLine
 10
66.10939373138524
 20
173.7691275139673
 30
0.0
 11
63.91439058766095
 21
195.2721945512736
 31
0.0
  0
ARC
  5
A0D
330
799
100
AcDbEntity
  8
DIMENSION
 62
     0
100
AcDbCircle
 10
70.08871511156645
 20
134.7862155096412
 30
0.0
 40
58.80029559098615
100
AcDbArc
 50
86.60773132799587
 51
93.39226867200492
  0
SOLID
  5
A0E
330
799
100
AcDbEntity
  8
DIMENSION
 62
     0
100
AcDbTrace
 10
73.60151843657293
 20
193.8988009588615
 30
0.0
 11
73.53453556197052
 21
193.0681640111193
 31
0.0
 12
76.05993784249827
 22
193.2825338611832
 32
0.0
 13
76.05993784249827
 23
193.2825338611832
 33
0.0
  0
SOLID
  5
A0F
330
799
100
AcDbEntity
  8
DIMENSION
 62
     0
100
AcDbTrace
 10
66.64289466116158
 20
193.0681640111193
 30
0.0
 11
66.57591178655916
 21
193.8988009588614
 31
0.0
 12
64.11749238063383
 22
193.2825338611831
 32
0.0
 13
64.11749238063383
 23
193.2825338611831
 33
0.0
  0
MTEXT
  5
A10
330
799
100
AcDbEntity
  8
DIMENSION
 62
     5
100
AcDbMText
 10
70.08871511156605
 20
195.8365111006274
 30
0.0
 40
2.5
 41
0.0
 71
     5
 72
     1
  1
12°
  0
POINT
  5
A11
330
799
100
AcDbEntity
  8
DEFPOINTS
 62
     0
100
AcDbPoint
 10
72.08217763741354
 20
193.5527099494612
 30
0.0
  0
POINT
  5
A12
330
799
100
AcDbEntity
  8
DEFPOINTS
 62
     0
100
AcDbPoint
 10
67.08871511156624
 20
164.1753310999132
 30
0.0
  0
POINT
  5
A13
330
799
100
AcDbEntity
  8
DEFPOINTS
 62
     0
100
AcDbPoint
 10
73.08871511156624
 20
164.1753310999132
 30
0.0
  0
POINT
  5
A14
330
799
100
AcDbEntity
  8
DEFPOINTS
 62
     0
100
AcDbPoint
 10
74.06803649174711
 20
173.7691275139673
 30
0.0
  0
POINT
  5
A15
330
799
100
AcDbEntity
  8
DEFPOINTS
 62
     0
100
AcDbPoint
 10
66.10939373138524
 20
173.7691275139673
 30
0.0
  0
ENDBLK
  5
7A6
330
799
100
AcDbEntity
  8
0
100
AcDbBlockEnd
  0
BLOCK
  5
7B6
330
7A8
100
AcDbEntity
  8
0
100
AcDbBlockBegin
  2
*D53
 70
     1
 10
0.0
 20
0.0
 30
0.0
  3
*D53
  1

  0
LINE
  5
A16
330
7A8
100
AcDbEntity
  8
DIMENSION
 62
     0
100
AcDbLine
 10
95.50120872899986
 20
176.6568790794264
 30
0.0
 11
96.67728950998515
 21
188.2991832662785
 31
0.0
  0
LINE
  5
A17
330
7A8
100
AcDbEntity
  8
DIMENSION
 62
     0
100
AcDbLine
 10
89.53159023288339
 20
176.6568790794264
 30
0.0
 11
88.35550945189787
 21
188.2991832662784
 31
0.0
  0
ARC
  5
A18
330
7A8
100
AcDbEntity
  8
DIMENSION
 62
     0
100
AcDbCircle
 10
92.51639948094197
 20
147.1095403528242
 30
0.0
 40
39.39927160194562
100
AcDbArc
 50
76.95927760928767
 51
80.59547401390483
  0
ARC
  5
A19
330
7A8
100
AcDbEntity
  8
DIMENSION
 62
     0
100
AcDbCircle
 10
92.51639948094197
 20
147.1095403528242
 30
0.0
 40
39.39927160194562
100
AcDbArc
 50
99.40452598609644
 51
103.0407223907136
  0
ARC
  5
A1A
330
7A8
100
AcDbEntity
  8
DIMENSION
 62
     0
100
AcDbCircle
 10
92.51639948094197
 20
147.1095403528242
 30
0.0
 40
39.39927160194562
100
AcDbArc
 50
84.23167041852199
 51
95.76832958147928
  0
SOLID
  5
A1B
330
7A8
100
AcDbEntity
  8
DIMENSION
 62
     0
100
AcDbTrace
 10
98.89938490166843
 20
185.5662369481478
 30
0.0
 11
99.00940289129394
 21
186.3922759825785
 31
0.0
 12
96.47627679318908
 22
186.3093104342396
 32
0.0
 13
96.47627679318908
 23
186.3093104342396
 33
0.0
  0
SOLID
  5
A1C
330
7A8
100
AcDbEntity
  8
DIMENSION
 62
     0
100
AcDbTrace
 10
86.02339607058913
 20
186.3922759825783
 30
0.0
 11
86.13341406021467
 21
185.5662369481476
 31
0.0
 12
88.55652216869399
 22
186.3093104342395
 32
0.0
 13
88.55652216869399
 23
186.3093104342395
 33
0.0
  0
MTEXT
  5
A1D
330
7A8
100
AcDbEntity
  8
DIMENSION
 62
     5
100
AcDbMText
 10
92.51639948094153
 20
188.7588119547698
 30
0.0
 40
2.5
 41
0.0
 71
     5
 72
     1
  1
12°
  0
POINT
  5
A1E
330
7A8
100
AcDbEntity
  8
DEFPOINTS
 62
     0
100
AcDbPoint
 10
93.83834285567452
 20
186.4866284686039
 30
0.0
  0
POINT
  5
A1F
330
7A8
100
AcDbEntity
  8
DEFPOINTS
 62
     0
100
AcDbPoint
 10
91.01639948094179
 20
161.9583981546205
 30
0.0
  0
POINT
  5
A20
330
7A8
100
AcDbEntity
  8
DEFPOINTS
 62
     0
100
AcDbPoint
 10
94.0163994809418
 20
161.9583981546205
 30
0.0
  0
POINT
  5
A21
330
7A8
100
AcDbEntity
  8
DEFPOINTS
 62
     0
100
AcDbPoint
 10
95.50120872899986
 20
176.6568790794264
 30
0.0
  0
POINT
  5
A22
330
7A8
100
AcDbEntity
  8
DEFPOINTS
 62
     0
100
AcDbPoint
 10
89.53159023288339
 20
176.6568790794264
 30
0.0
  0
ENDBLK
  5
7B7
330
7A8
100
AcDbEntity
  8
0
100
AcDbBlockEnd
  0
BLOCK
  5
7C3
330
7B9
100
AcDbEntity
  8
0
100
AcDbBlockBegin
  2
*D54
 70
     1
 10
0.0
 20
0.0
 30
0.0
  3
*D54
  1

  0
LINE
  5
938
330
7B9
100
AcDbEntity
  8
DIMENSION
 62
     0
100
AcDbLine
 10
70.08871511156624
 20
178.175331099913
 30
0.0
 11
52.46486481457413
 21
178.175331099913
 31
0.0
  0
LINE
  5
939
330
7B9
100
AcDbEntity
  8
DIMENSION
 62
     0
100
AcDbLine
 10
70.08871511156624
 20
161.1753310999132
 30
0.0
 11
52.46486481457413
 21
161.1753310999133
 31
0.0
  0
LINE
  5
93A
330
7B9
100
AcDbEntity
  8
DIMENSION
 62
     0
100
AcDbLine
 10
54.46486481457412
 20
175.675331099913
 30
0.0
 11
54.46486481457412
 21
163.6753310999132
 31
0.0
  0
SOLID
  5
93B
330
7B9
100
AcDbEntity
  8
DIMENSION
 62
     0
100
AcDbTrace
 10
54.04819814790746
 20
175.675331099913
 30
0.0
 11
54.88153148124079
 21
175.675331099913
 31
0.0
 12
54.46486481457413
 22
178.175331099913
 32
0.0
 13
54.46486481457413
 23
178.175331099913
 33
0.0
  0
SOLID
  5
93C
330
7B9
100
AcDbEntity
  8
DIMENSION
 62
     0
100
AcDbTrace
 10
54.04819814790746
 20
163.6753310999132
 30
0.0
 11
54.88153148124079
 21
163.6753310999132
 31
0.0
 12
54.46486481457412
 22
161.1753310999133
 32
0.0
 13
54.46486481457412
 23
161.1753310999133
 33
0.0
  0
MTEXT
  5
93D
330
7B9
100
AcDbEntity
  8
DIMENSION
 62
     5
100
AcDbMText
 10
52.2148648145741
 20
169.6753310999131
 30
0.0
 40
2.5
 41
0.0
 71
     5
 72
     1
  1
17
 11
0.0000000000000001
 21
1.0
 31
0.0
1001
ACAD
1000
MTEXTBEGIN
1070
    73
1070
     1
1070
    44
1040
1.0
1070
    74
1070
     0
1000
MTEXTEND
  0
POINT
  5
93E
330
7B9
100
AcDbEntity
  8
DEFPOINTS
 62
     0
100
AcDbPoint
 10
70.08871511156624
 20
178.175331099913
 30
0.0
  0
POINT
  5
93F
330
7B9
100
AcDbEntity
  8
DEFPOINTS
 62
     0
100
AcDbPoint
 10
70.08871511156624
 20
161.1753310999132
 30
0.0
  0
POINT
  5
940
330
7B9
100
AcDbEntity
  8
DEFPOINTS
 62
     0
100
AcDbPoint
 10
54.46486481457412
 20
161.1753310999133
 30
0.0
  0
ENDBLK
  5
7C4
330
7B9
100
AcDbEntity
  8
0
100
AcDbBlockEnd
  0
BLOCK
  5
7CD
330
7C6
100
AcDbEntity
  8
0
100
AcDbBlockBegin
  2
*D55
 70
     1
 10
0.0
 20
0.0
 30
0.0
  3
*D55
  1

  0
LINE
  5
941
330
7C6
100
AcDbEntity
  8
DIMENSION
 62
     0
100
AcDbLine
 10
73.38203813714392
 20
189.1020549425279
 30
0.0
 11
71.48914686543341
 21
180.522676285324
 31
0.0
  0
MTEXT
  5
942
330
7C6
100
AcDbEntity
  8
DIMENSION
 62
     5
100
AcDbMText
 10
70.50774835131313
 20
186.5177737566898
 30
0.0
 40
2.5
 41
0.0
 71
     5
 72
     1
  1
R4
 11
0.2154510390564806
 21
0.9765146439093902
 31
0.0
1001
ACAD
1000
MTEXTBEGIN
1070
    73
1070
     1
1070
    44
1040
1.0
1070
    74
1070
     0
1000
MTEXTEND
  0
LINE
  5
943
330
7C6
100
AcDbEntity
  8
DIMENSION
 62
     0
100
AcDbLine
 10
70.08871511156629
 20
174.175331099913
 30
0.0
 11
70.95051926779222
 21
178.0813896755506
 31
0.0
  0
SOLID
  5
944
330
7C6
100
AcDbEntity
  8
DIMENSION
 62
     0
100
AcDbTrace
 10
71.08226576380451
 20
180.6124475515976
 30
0.0
 11
71.89602796706234
 21
180.4329050190505
 31
0.0
 12
70.95051926779222
 22
178.0813896755506
 32
0.0
 13
70.95051926779222
 23
178.0813896755506
 33
0.0
  0
POINT
  5
945
330
7C6
100
AcDbEntity
  8
DEFPOINTS
 62
     0
100
AcDbPoint
 10
70.95051926779222
 20
178.0813896755506
 30
0.0
  0
POINT
  5
946
330
7C6
100
AcDbEntity
  8
DEFPOINTS
 62
     0
100
AcDbPoint
 10
70.08871511156629
 20
174.175331099913
 30
0.0
  0
ENDBLK
  5
7CE
330
7C6
100
AcDbEntity
  8
0
100
AcDbBlockEnd
  0
BLOCK
  5
7D7
330
7D0
100
AcDbEntity
  8
0
100
AcDbBlockBegin
  2
*D56
 70
     1
 10
0.0
 20
0.0
 30
0.0
  3
*D56
  1

  0
LINE
  5
947
330
7D0
100
AcDbEntity
  8
DIMENSION
 62
     0
100
AcDbLine
 10
77.12072704866767
 20
182.9044450529991
 30
0.0
 11
87.38575422797236
 21
178.9399327337239
 31
0.0
  0
MTEXT
  5
948
330
7D0
100
AcDbEntity
  8
DIMENSION
 62
     5
100
AcDbMText
 10
80.80762565466251
 20
183.8924850894134
 30
0.0
 40
2.5
 41
0.0
 71
     5
 72
     1
  1
R3
 11
0.932844591448987
 21
-0.3602790143824262
 31
0.0
1001
ACAD
1000
MTEXTBEGIN
1070
    73
1070
     1
1070
    44
1040
1.0
1070
    74
1070
     0
1000
MTEXTEND
  0
LINE
  5
949
330
7D0
100
AcDbEntity
  8
DIMENSION
 62
     0
100
AcDbLine
 10
92.51639948094194
 20
176.9583981546205
 30
0.0
 11
89.71786570659482
 21
178.0392351977678
 31
0.0
  0
SOLID
  5
94A
330
7D0
100
AcDbEntity
  8
DIMENSION
 62
     0
100
AcDbTrace
 10
87.53587048396502
 20
179.328617980161
 30
0.0
 11
87.23563797197968
 21
178.5512474872868
 31
0.0
 12
89.71786570659482
 22
178.0392351977678
 32
0.0
 13
89.71786570659482
 23
178.0392351977678
 33
0.0
  0
POINT
  5
94B
330
7D0
100
AcDbEntity
  8
DEFPOINTS
 62
     0
100
AcDbPoint
 10
89.71786570659482
 20
178.0392351977678
 30
0.0
  0
POINT
  5
94C
330
7D0
100
AcDbEntity
  8
DEFPOINTS
 62
     0
100
AcDbPoint
 10
92.51639948094194
 20
176.9583981546205
 30
0.0
  0
ENDBLK
  5
7D8
330
7D0
100
AcDbEntity
  8
0
100
AcDbBlockEnd
  0
BLOCK
  5
809
330
7FF
100
AcDbEntity
  8
0
100
AcDbBlockBegin
  2
*D57
 70
     1
 10
0.0
 20
0.0
 30
0.0
  3
*D57
  1

  0
LINE
  5
94D
330
7FF
100
AcDbEntity
  8
DIMENSION
 62
     0
100
AcDbLine
 10
180.580188688904
 20
179.13488765295
 30
0.0
 11
180.580188688904
 21
186.1152286675726
 31
0.0
  0
LINE
  5
94E
330
7FF
100
AcDbEntity
  8
DIMENSION
 62
     0
100
AcDbLine
 10
193.0801886889041
 20
179.13488765295
 30
0.0
 11
193.0801886889041
 21
186.1152286675726
 31
0.0
  0
LINE
  5
94F
330
7FF
100
AcDbEntity
  8
DIMENSION
 62
     0
100
AcDbLine
 10
183.0801886889041
 20
184.1152286675726
 30
0.0
 11
190.5801886889041
 21
184.1152286675726
 31
0.0
  0
SOLID
  5
950
330
7FF
100
AcDbEntity
  8
DIMENSION
 62
     0
100
AcDbTrace
 10
183.0801886889041
 20
184.5318953342393
 30
0.0
 11
183.0801886889041
 21
183.698562000906
 31
0.0
 12
180.580188688904
 22
184.1152286675726
 32
0.0
 13
180.580188688904
 23
184.1152286675726
 33
0.0
  0
SOLID
  5
951
330
7FF
100
AcDbEntity
  8
DIMENSION
 62
     0
100
AcDbTrace
 10
190.5801886889041
 20
184.5318953342393
 30
0.0
 11
190.5801886889041
 21
183.698562000906
 31
0.0
 12
193.0801886889041
 22
184.1152286675726
 32
0.0
 13
193.0801886889041
 23
184.1152286675726
 33
0.0
  0
MTEXT
  5
952
330
7FF
100
AcDbEntity
  8
DIMENSION
 62
     5
100
AcDbMText
 10
186.8301886889041
 20
186.6033239056679
 30
0.0
 40
2.5
 41
0.0
 71
     5
 72
     1
  1
12,5
1001
ACAD
1000
MTEXTBEGIN
1070
    73
1070
     1
1070
    44
1040
1.0
1070
    74
1070
     0
1000
MTEXTEND
  0
POINT
  5
953
330
7FF
100
AcDbEntity
  8
DEFPOINTS
 62
     0
100
AcDbPoint
 10
180.580188688904
 20
179.13488765295
 30
0.0
  0
POINT
  5
954
330
7FF
100
AcDbEntity
  8
DEFPOINTS
 62
     0
100
AcDbPoint
 10
193.0801886889041
 20
179.13488765295
 30
0.0
  0
POINT
  5
955
330
7FF
100
AcDbEntity
  8
DEFPOINTS
 62
     0
100
AcDbPoint
 10
193.0801886889041
 20
184.1152286675726
 30
0.0
  0
ENDBLK
  5
80A
330
7FF
100
AcDbEntity
  8
0
100
AcDbBlockEnd
  0
BLOCK
  5
816
330
80C
100
AcDbEntity
  8
0
100
AcDbBlockBegin
  2
*D58
 70
     1
 10
0.0
 20
0.0
 30
0.0
  3
*D58
  1

  0
LINE
  5
956
330
80C
100
AcDbEntity
  8
DIMENSION
 62
     0
100
AcDbLine
 10
193.0801886889041
 20
179.13488765295
 30
0.0
 11
202.7709332127595
 21
179.13488765295
 31
0.0
  0
LINE
  5
957
330
80C
100
AcDbEntity
  8
DIMENSION
 62
     0
100
AcDbLine
 10
193.0801886889041
 20
171.1348876529503
 30
0.0
 11
202.7709332127595
 21
171.1348876529503
 31
0.0
  0
LINE
  5
958
330
80C
100
AcDbEntity
  8
DIMENSION
 62
     0
100
AcDbLine
 10
200.7709332127595
 20
176.63488765295
 30
0.0
 11
200.7709332127595
 21
173.6348876529503
 31
0.0
  0
SOLID
  5
959
330
80C
100
AcDbEntity
  8
DIMENSION
 62
     0
100
AcDbTrace
 10
200.3542665460929
 20
176.63488765295
 30
0.0
 11
201.1875998794262
 21
176.63488765295
 31
0.0
 12
200.7709332127595
 22
179.13488765295
 32
0.0
 13
200.7709332127595
 23
179.13488765295
 33
0.0
  0
SOLID
  5
95A
330
80C
100
AcDbEntity
  8
DIMENSION
 62
     0
100
AcDbTrace
 10
200.3542665460929
 20
173.6348876529503
 30
0.0
 11
201.1875998794262
 21
173.6348876529503
 31
0.0
 12
200.7709332127595
 22
171.1348876529503
 32
0.0
 13
200.7709332127595
 23
171.1348876529503
 33
0.0
  0
MTEXT
  5
95B
330
80C
100
AcDbEntity
  8
DIMENSION
 62
     5
100
AcDbMText
 10
198.5209332127595
 20
175.1348876529502
 30
0.0
 40
2.5
 41
0.0
 71
     5
 72
     1
  1
%%c8
 11
0.0000000000000001
 21
1.0
 31
0.0
1001
ACAD
1000
MTEXTBEGIN
1070
    73
1070
     1
1070
    44
1040
1.0
1070
    74
1070
     0
1000
MTEXTEND
  0
POINT
  5
95C
330
80C
100
AcDbEntity
  8
DEFPOINTS
 62
     0
100
AcDbPoint
 10
193.0801886889041
 20
179.13488765295
 30
0.0
  0
POINT
  5
95D
330
80C
100
AcDbEntity
  8
DEFPOINTS
 62
     0
100
AcDbPoint
 10
193.0801886889041
 20
171.1348876529503
 30
0.0
  0
POINT
  5
95E
330
80C
100
AcDbEntity
  8
DEFPOINTS
 62
     0
100
AcDbPoint
 10
200.7709332127595
 20
171.1348876529503
 30
0.0
  0
ENDBLK
  5
817
330
80C
100
AcDbEntity
  8
0
100
AcDbBlockEnd
  0
BLOCK
  5
825
330
819
100
AcDbEntity
  8
0
100
AcDbBlockBegin
  2
*D59
 70
     1
 10
0.0
 20
0.0
 30
0.0
  3
*D59
  1

  0
LINE
  5
96A
330
819
100
AcDbEntity
  8
DIMENSION
 62
     0
100
AcDbLine
 10
180.580188688904
 20
177.63488765295
 30
0.0
 11
173.7019053713507
 21
177.63488765295
 31
0.0
  0
LINE
  5
96B
330
819
100
AcDbEntity
  8
DIMENSION
 62
     0
100
AcDbLine
 10
180.580188688904
 20
172.6348876529502
 30
0.0
 11
173.7019053713507
 21
172.6348876529502
 31
0.0
  0
LINE
  5
96C
330
819
100
AcDbEntity
  8
DIMENSION
 62
     0
100
AcDbLine
 10
175.7019053713507
 20
180.13488765295
 30
0.0
 11
175.7019053713507
 21
182.63488765295
 31
0.0
  0
LINE
  5
96D
330
819
100
AcDbEntity
  8
DIMENSION
 62
     0
100
AcDbLine
 10
175.7019053713507
 20
170.1348876529502
 30
0.0
 11
175.7019053713507
 21
161.7063162243788
 31
0.0
  0
LINE
  5
96E
330
819
100
AcDbEntity
  8
DIMENSION
 62
     0
100
AcDbLine
 10
175.7019053713507
 20
177.63488765295
 30
0.0
 11
175.7019053713507
 21
172.6348876529502
 31
0.0
  0
SOLID
  5
96F
330
819
100
AcDbEntity
  8
DIMENSION
 62
     0
100
AcDbTrace
 10
175.2852387046841
 20
180.13488765295
 30
0.0
 11
176.1185720380174
 21
180.13488765295
 31
0.0
 12
175.7019053713507
 22
177.63488765295
 32
0.0
 13
175.7019053713507
 23
177.63488765295
 33
0.0
  0
SOLID
  5
970
330
819
100
AcDbEntity
  8
DIMENSION
 62
     0
100
AcDbTrace
 10
175.2852387046841
 20
170.1348876529502
 30
0.0
 11
176.1185720380174
 21
170.1348876529502
 31
0.0
 12
175.7019053713507
 22
172.6348876529502
 32
0.0
 13
175.7019053713507
 23
172.6348876529502
 33
0.0
  0
MTEXT
  5
971
330
819
100
AcDbEntity
  8
DIMENSION
 62
     5
100
AcDbMText
 10
173.4519053713507
 20
164.6706019386645
 30
0.0
 40
2.5
 41
0.0
 71
     5
 72
     1
  1
%%C5
 11
0.0000000000000001
 21
1.0
 31
0.0
1001
ACAD
1000
MTEXTBEGIN
1070
    73
1070
     1
1070
    44
1040
1.0
1070
    74
1070
     0
1000
MTEXTEND
  0
POINT
  5
972
330
819
100
AcDbEntity
  8
DEFPOINTS
 62
     0
100
AcDbPoint
 10
180.580188688904
 20
177.63488765295
 30
0.0
  0
POINT
  5
973
330
819
100
AcDbEntity
  8
DEFPOINTS
 62
     0
100
AcDbPoint
 10
180.580188688904
 20
172.6348876529502
 30
0.0
  0
POINT
  5
974
330
819
100
AcDbEntity
  8
DEFPOINTS
 62
     0
100
AcDbPoint
 10
175.7019053713507
 20
172.6348876529502
 30
0.0
  0
ENDBLK
  5
826
330
819
100
AcDbEntity
  8
0
100
AcDbBlockEnd
  0
BLOCK
  5
982
330
976
100
AcDbEntity
  8
0
100
AcDbBlockBegin
  2
*D60
 70
     1
 10
0.0
 20
0.0
 30
0.0
  3
*D60
  1

  0
LINE
  5
984
330
976
100
AcDbEntity
  8
DIMENSION
 62
     0
100
AcDbLine
 10
180.580188688904
 20
172.6348876529502
 30
0.0
 11
174.2834034348737
 21
172.6348876529502
 31
0.0
  0
LINE
  5
985
330
976
100
AcDbEntity
  8
DIMENSION
 62
     0
100
AcDbLine
 10
180.580188688904
 20
177.63488765295
 30
0.0
 11
174.2834034348737
 21
177.63488765295
 31
0.0
  0
LINE
  5
986
330
976
100
AcDbEntity
  8
DIMENSION
 62
     0
100
AcDbLine
 10
176.2834034348737
 20
170.1348876529502
 30
0.0
 11
176.2834034348737
 21
167.6348876529502
 31
0.0
  0
LINE
  5
987
330
976
100
AcDbEntity
  8
DIMENSION
 62
     0
100
AcDbLine
 10
176.2834034348737
 20
180.13488765295
 30
0.0
 11
176.2834034348737
 21
188.5634590815214
 31
0.0
  0
LINE
  5
988
330
976
100
AcDbEntity
  8
DIMENSION
 62
     0
100
AcDbLine
 10
176.2834034348737
 20
172.6348876529502
 30
0.0
 11
176.2834034348737
 21
177.63488765295
 31
0.0
  0
SOLID
  5
989
330
976
100
AcDbEntity
  8
DIMENSION
 62
     0
100
AcDbTrace
 10
175.866736768207
 20
170.1348876529502
 30
0.0
 11
176.7000701015404
 21
170.1348876529502
 31
0.0
 12
176.2834034348737
 22
172.6348876529502
 32
0.0
 13
176.2834034348737
 23
172.6348876529502
 33
0.0
  0
SOLID
  5
98A
330
976
100
AcDbEntity
  8
DIMENSION
 62
     0
100
AcDbTrace
 10
175.866736768207
 20
180.13488765295
 30
0.0
 11
176.7000701015404
 21
180.13488765295
 31
0.0
 12
176.2834034348737
 22
177.63488765295
 32
0.0
 13
176.2834034348737
 23
177.63488765295
 33
0.0
  0
MTEXT
  5
98B
330
976
100
AcDbEntity
  8
DIMENSION
 62
     5
100
AcDbMText
 10
174.0334034348737
 20
185.5991733672357
 30
0.0
 40
2.5
 41
0.0
 71
     5
 72
     1
  1
%%c5
 11
0.0000000000000001
 21
1.0
 31
0.0
1001
ACAD
1000
MTEXTBEGIN
1070
    73
1070
     1
1070
    44
1040
1.0
1070
    74
1070
     0
1000
MTEXTEND
  0
POINT
  5
98C
330
976
100
AcDbEntity
  8
DEFPOINTS
 62
     0
100
AcDbPoint
 10
180.580188688904
 20
172.6348876529502
 30
0.0
  0
POINT
  5
98D
330
976
100
AcDbEntity
  8
DEFPOINTS
 62
     0
100
AcDbPoint
 10
180.580188688904
 20
177.63488765295
 30
0.0
  0
POINT
  5
98E
330
976
100
AcDbEntity
  8
DEFPOINTS
 62
     0
100
AcDbPoint
 10
176.2834034348737
 20
177.63488765295
 30
0.0
  0
ENDBLK
  5
983
330
976
100
AcDbEntity
  8
0
100
AcDbBlockEnd
  0
ENDSEC
  0
SECTION
  2
ENTITIES
  0
ARC
  5
1CA
330
1F
100
AcDbEntity
  8
0
100
AcDbCircle
 10
70.08871511156624
 20
174.175331099913
 30
0.0
 40
4.0
100
AcDbArc
 50
354.1715150076682
 51
185.8284849923317
  0
LINE
  5
1CB
330
1F
100
AcDbEntity
  8
CENTER
100
AcDbLine
 10
108.1818389834861
 20
218.9701489503656
 30
0.0
 11
121.040941362459
 21
218.9701489503656
 31
0.0
  0
DIMENSION
  5
1CC
330
1F
100
AcDbEntity
  8
DIMENSION
100
AcDbDimension
  2
*D23
 10
100.9318766011126
 20
211.9701489503658
 30
0.0
 11
100.9318766011126
 21
203.2779800743016
 31
0.0
 70
   160
  3
ISO-25
100
AcDbAlignedDimension
 13
95.88380942968598
 23
192.4701489503658
 33
0.0
 14
90.13380942968598
 24
211.9701489503658
 34
0.0
 50
90.0
100
AcDbRotatedDimension
  0
LINE
  5
1CD
330
1F
100
AcDbEntity
  8
FORM
100
AcDbLine
 10
87.63380942968598
 20
207.4701489503656
 30
0.0
 11
87.63380942968598
 21
192.4701489503658
 31
0.0
  0
LINE
  5
1CE
330
1F
100
AcDbEntity
  8
FORM
100
AcDbLine
 10
90.13380942968598
 20
211.9701489503658
 30
0.0
 11
90.13380942968598
 21
194.4701489503658
 31
0.0
  0
LINE
  5
1CF
330
1F
100
AcDbEntity
  8
FORM
100
AcDbLine
 10
90.13380942968598
 20
195.4701489503658
 30
0.0
 11
95.88380942968598
 21
195.4701489503658
 31
0.0
  0
LINE
  5
1D0
330
1F
100
AcDbEntity
  8
CENTER
100
AcDbLine
 10
96.88380942968599
 20
193.9701489503656
 30
0.0
 11
82.87170787310499
 21
193.9701489503656
 31
0.0
  0
LINE
  5
1D1
330
1F
100
AcDbEntity
  8
FORM
100
AcDbLine
 10
87.63380942968598
 20
192.4701489503658
 30
0.0
 11
95.88380942968598
 21
192.4701489503658
 31
0.0
  0
LINE
  5
1D2
330
1F
100
AcDbEntity
  8
FORM
100
AcDbLine
 10
95.88380942968598
 20
195.4701489503658
 30
0.0
 11
95.88380942968598
 21
192.4701489503658
 31
0.0
  0
LINE
  5
1D3
330
1F
100
AcDbEntity
  8
CENTER
100
AcDbLine
 10
91.13380942968598
 20
208.9701489503657
 30
0.0
 11
72.15347711160757
 21
208.9701489503657
 31
0.0
  0
LINE
  5
1D4
330
1F
100
AcDbEntity
  8
FORM
100
AcDbLine
 10
74.63380942968598
 20
214.9701489503658
 30
0.0
 11
67.13380942968598
 21
214.9701489503658
 31
0.0
  0
LINE
  5
1D5
330
1F
100
AcDbEntity
  8
FORM
100
AcDbLine
 10
62.13380942968598
 20
222.9701489503656
 30
0.0
 11
79.63380942968598
 21
222.9701489503656
 31
0.0
  0
LINE
  5
1D6
330
1F
100
AcDbEntity
  8
CENTER
100
AcDbLine
 10
61.13380942968598
 20
218.9701489503656
 30
0.0
 11
83.62529581191557
 21
218.9701489503656
 31
0.0
  0
LINE
  5
1D7
330
1F
100
AcDbEntity
  8
FORM
100
AcDbLine
 10
65.13380942968598
 20
214.9701489503658
 30
0.0
 11
62.13380942968598
 21
214.9701489503658
 31
0.0
  0
LINE
  5
1D8
330
1F
100
AcDbEntity
  8
FORM
100
AcDbLine
 10
62.13380942968598
 20
214.9701489503658
 30
0.0
 11
62.13380942968598
 21
222.9701489503656
 31
0.0
  0
LINE
  5
1D9
330
1F
100
AcDbEntity
  8
FORM
100
AcDbLine
 10
67.13380942968598
 20
219.9701489503656
 30
0.0
 11
65.13380942968598
 21
219.9701489503656
 31
0.0
  0
LINE
  5
1DA
330
1F
100
AcDbEntity
  8
FORM
100
AcDbLine
 10
67.13380942968598
 20
214.9701489503658
 30
0.0
 11
67.13380942968598
 21
219.9701489503656
 31
0.0
  0
LINE
  5
1DB
330
1F
100
AcDbEntity
  8
FORM
100
AcDbLine
 10
65.13380942968598
 20
214.9701489503658
 30
0.0
 11
65.13380942968598
 21
219.9701489503656
 31
0.0
  0
LINE
  5
1DC
330
1F
100
AcDbEntity
  8
FORM
100
AcDbLine
 10
79.63380942968598
 20
211.9701489503658
 30
0.0
 11
90.13380942968598
 21
211.9701489503658
 31
0.0
  0
LINE
  5
1DD
330
1F
100
AcDbEntity
  8
FORM
100
AcDbLine
 10
78.13380942968598
 20
205.9701489503658
 30
0.0
 11
87.63380942968598
 21
205.9701489503658
 31
0.0
  0
LINE
  5
1DE
330
1F
100
AcDbEntity
  8
FORM
100
AcDbLine
 10
79.63380942968598
 20
222.9701489503656
 30
0.0
 11
79.63380942968598
 21
209.7201489503658
 31
0.0
  0
LINE
  5
1DF
330
1F
100
AcDbEntity
  8
FORM
100
AcDbLine
 10
74.63380942968598
 20
217.3701489503656
 30
0.0
 11
74.63380942968598
 21
205.9701489503658
 31
0.0
  0
LINE
  5
1E0
330
1F
100
AcDbEntity
  8
FORM
100
AcDbLine
 10
78.13380942968598
 20
206.9701489503657
 30
0.0
 11
78.13380942968598
 21
205.9701489503658
 31
0.0
  0
LINE
  5
1E1
330
1F
100
AcDbEntity
  8
FORM
100
AcDbLine
 10
76.13380942968598
 20
206.9701489503657
 30
0.0
 11
76.13380942968598
 21
205.9701489503658
 31
0.0
  0
LINE
  5
1E2
330
1F
100
AcDbEntity
  8
FORM
100
AcDbLine
 10
76.13380942968598
 20
206.9701489503657
 30
0.0
 11
78.13380942968598
 21
206.9701489503657
 31
0.0
  0
LINE
  5
1E3
330
1F
100
AcDbEntity
  8
FORM
100
AcDbLine
 10
74.63380942968598
 20
205.9701489503658
 30
0.0
 11
76.13380942968598
 21
205.9701489503658
 31
0.0
  0
DIMENSION
  5
1E4
330
1F
100
AcDbEntity
  8
DIMENSION
100
AcDbDimension
  2
*D24
 10
141.511421818137
 20
211.9701489503658
 30
0.0
 11
141.5114218181369
 21
219.3034822836991
 31
0.0
 70
   160
  3
ISO-25
100
AcDbAlignedDimension
 13
156.4881739274289
 23
205.9701489503658
 33
0.0
 14
156.4881739274289
 24
211.9701489503658
 34
0.0
 50
90.0
100
AcDbRotatedDimension
  0
LINE
  5
1E6
330
1F
100
AcDbEntity
  8
FORM
100
AcDbLine
 10
115.6818389834862
 20
193.9701489503656
 30
0.0
 11
117.1666482315442
 21
208.6686298751716
 31
0.0
  0
LINE
  5
1E7
330
1F
100
AcDbEntity
  8
FORM
100
AcDbLine
 10
112.6818389834862
 20
193.9701489503656
 30
0.0
 11
111.1970297354279
 21
208.6686298751716
 31
0.0
  0
DIMENSION
  5
1E8
330
1F
100
AcDbEntity
  8
DIMENSION
100
AcDbDimension
  2
*D26
 10
131.4409225222663
 20
192.4701489503658
 30
0.0
 11
128.952827284171
 21
207.7201489503657
 31
0.0
 70
    32
  3
ISO-25
100
AcDbAlignedDimension
 13
114.1818389834861
 23
222.9701489503656
 33
0.0
 14
114.1818389834861
 24
192.4701489503658
 34
0.0
 50
90.0
100
AcDbRotatedDimension
  0
DIMENSION
  5
1E9
330
1F
100
AcDbEntity
  8
DIMENSION
100
AcDbDimension
  2
*D27
 10
153.988173927429
 20
180.3163019170643
 30
0.0
 11
161.738173927429
 21
182.8043971551596
 31
0.0
 70
    32
  3
ISO-25
100
AcDbAlignedDimension
 13
169.4881739274291
 23
205.9701489503658
 33
0.0
 14
153.988173927429
 24
211.7201489503656
 34
0.0
100
AcDbRotatedDimension
  0
LINE
  5
1EA
330
1F
100
AcDbEntity
  8
FORM
100
AcDbLine
 10
156.4881739274289
 20
207.4701489503656
 30
0.0
 11
156.4881739274289
 21
192.4701489503658
 31
0.0
  0
LINE
  5
1EB
330
1F
100
AcDbEntity
  8
FORM
100
AcDbLine
 10
153.988173927429
 20
211.9701489503658
 30
0.0
 11
153.988173927429
 21
194.4701489503658
 31
0.0
  0
DIMENSION
  5
1EC
330
1F
100
AcDbEntity
  8
DIMENSION
100
AcDbDimension
  2
*D28
 10
141.259200665455
 20
152.009286732135
 30
0.0
 11
141.259200665455
 21
163.3426200654684
 31
0.0
 70
   160
  1
%%c<>
  3
ISO-25
100
AcDbAlignedDimension
 13
117.3125644336638
 23
154.009286732135
 33
0.0
 14
117.3125644336638
 24
152.009286732135
 34
0.0
 50
90.0
100
AcDbRotatedDimension
  0
DIMENSION
  5
1ED
330
1F
100
AcDbEntity
  8
DIMENSION
100
AcDbDimension
  2
*D29
 10
193.5019355031417
 20
151.8863500761125
 30
0.0
 11
193.5019355031416
 21
142.5530167427792
 31
0.0
 70
   160
  1
%%c<>
  3
ISO-25
100
AcDbAlignedDimension
 13
179.6059307344223
 23
157.8863500761125
 33
0.0
 14
179.6059307344222
 24
151.8863500761125
 34
0.0
 50
90.0
100
AcDbRotatedDimension
  0
DIMENSION
  5
1EE
330
1F
100
AcDbEntity
  8
DIMENSION
100
AcDbDimension
  2
*D30
 10
117.3125644336638
 20
157.6334628173819
 30
0.0
 11
126.8125644336637
 21
157.6334628173819
 31
0.0
 70
   160
  3
ISO-25
100
AcDbAlignedDimension
 13
109.0625644336638
 23
154.509286732135
 33
0.0
 14
117.3125644336638
 24
154.009286732135
 34
0.0
100
AcDbRotatedDimension
  0
DIMENSION
  5
1EF
330
1F
100
AcDbEntity
  8
DIMENSION
100
AcDbDimension
  2
*D31
 10
114.3125644336637
 20
142.4630039677811
 30
0.0
 11
124.6458977669971
 21
142.4630039677811
 31
0.0
 70
   160
  3
ISO-25
100
AcDbAlignedDimension
 13
117.3125644336638
 23
152.009286732135
 33
0.0
 14
114.3125644336637
 24
151.509286732135
 34
0.0
100
AcDbRotatedDimension
  0
LINE
  5
1F0
330
1F
100
AcDbEntity
  8
CENTER
100
AcDbLine
 10
108.0625644336637
 20
153.009286732135
 30
0.0
 11
122.0746659902447
 21
153.009286732135
 31
0.0
  0
LINE
  5
1F1
330
1F
100
AcDbEntity
  8
PRO3
100
AcDbLine
 10
109.0625644336638
 20
154.509286732135
 30
0.0
 11
114.3125644336637
 21
154.509286732135
 31
0.0
  0
LINE
  5
1F2
330
1F
100
AcDbEntity
  8
PRO3
100
AcDbLine
 10
114.3125644336637
 20
151.509286732135
 30
0.0
 11
109.0625644336638
 21
151.509286732135
 31
0.0
  0
LINE
  5
1F3
330
1F
100
AcDbEntity
  8
PRO3
100
AcDbLine
 10
109.0625644336638
 20
151.509286732135
 30
0.0
 11
109.0625644336638
 21
154.509286732135
 31
0.0
  0
LINE
  5
1F4
330
1F
100
AcDbEntity
  8
PRO3
100
AcDbLine
 10
114.3125644336637
 20
154.009286732135
 30
0.0
 11
117.3125644336638
 21
154.009286732135
 31
0.0
  0
LINE
  5
1F5
330
1F
100
AcDbEntity
  8
PRO3
100
AcDbLine
 10
114.3125644336637
 20
152.009286732135
 30
0.0
 11
117.3125644336638
 21
152.009286732135
 31
0.0
  0
LINE
  5
1F6
330
1F
100
AcDbEntity
  8
PRO3
100
AcDbLine
 10
114.3125644336637
 20
154.509286732135
 30
0.0
 11
114.3125644336637
 21
151.509286732135
 31
0.0
  0
LINE
  5
1F7
330
1F
100
AcDbEntity
  8
PRO3
100
AcDbLine
 10
117.3125644336638
 20
154.009286732135
 30
0.0
 11
117.3125644336638
 21
152.009286732135
 31
0.0
  0
DIMENSION
  5
1F8
330
1F
100
AcDbEntity
  8
DIMENSION
100
AcDbDimension
  2
*D32
 10
155.5150677465576
 20
153.3863500761125
 30
0.0
 11
155.5150677465575
 21
165.7196834094459
 31
0.0
 70
   160
  1
%%c<>
  3
ISO-25
100
AcDbAlignedDimension
 13
170.1059307344224
 23
156.3863500761125
 33
0.0
 14
170.1059307344224
 24
153.3863500761125
 34
0.0
 50
90.0
100
AcDbRotatedDimension
  0
CIRCLE
  5
1F9
330
1F
100
AcDbEntity
  8
PRO2
100
AcDbCircle
 10
92.51639948094179
 20
176.9583981546206
 30
0.0
 40
1.5
  0
ARC
  5
1FA
330
1F
100
AcDbEntity
  8
PRO2
100
AcDbCircle
 10
92.51639948094179
 20
176.9583981546206
 30
0.0
 40
3.0
100
AcDbArc
 50
354.2316704185209
 51
185.7683295814791
  0
ARC
  5
1FB
330
1F
100
AcDbEntity
  8
PRO2
100
AcDbCircle
 10
92.51639948094179
 20
161.9583981546205
 30
0.0
 40
1.5
100
AcDbArc
 50
180.0
 51
0.0
  0
LINE
  5
1FC
330
1F
100
AcDbEntity
  8
PRO2
100
AcDbLine
 10
91.01639948094179
 20
161.9583981546205
 30
0.0
 11
89.53159023288339
 21
176.6568790794264
 31
0.0
  0
LINE
  5
1FD
330
1F
100
AcDbEntity
  8
0
100
AcDbLine
 10
73.08871511156624
 20
164.1753310999132
 30
0.0
 11
74.06803649174711
 21
173.7691275139673
 31
0.0
  0
LINE
  5
1FE
330
1F
100
AcDbEntity
  8
0
100
AcDbLine
 10
67.08871511156624
 20
164.1753310999132
 30
0.0
 11
66.10939373138524
 21
173.7691275139673
 31
0.0
  0
CIRCLE
  5
1FF
330
1F
100
AcDbEntity
  8
0
100
AcDbCircle
 10
70.08871511156624
 20
164.1753310999132
 30
0.0
 40
1.5
  0
ARC
  5
200
330
1F
100
AcDbEntity
  8
0
100
AcDbCircle
 10
70.08871511156624
 20
164.1753310999132
 30
0.0
 40
3.0
100
AcDbArc
 50
180.0
 51
0.0
  0
LINE
  5
205
330
1F
100
AcDbEntity
  8
PRO2
100
AcDbLine
 10
94.0163994809418
 20
161.9583981546205
 30
0.0
 11
95.50120872899986
 21
176.6568790794264
 31
0.0
  0
CIRCLE
  5
206
330
1F
100
AcDbEntity
  8
PRO2
100
AcDbCircle
 10
92.51639948094179
 20
161.9583981546205
 30
0.0
 40
1.0
  0
LINE
  5
207
330
1F
100
AcDbEntity
  8
CENTER
100
AcDbLine
 10
114.1818389834861
 20
190.4701489503657
 30
0.0
 11
114.1818389834861
 21
197.9371655085848
 31
0.0
  0
ARC
  5
208
330
1F
100
AcDbEntity
  8
FORM
100
AcDbCircle
 10
114.1818389834861
 20
193.9701489503656
 30
0.0
 40
1.5
100
AcDbArc
 50
180.0
 51
0.0
  0
LINE
  5
209
330
1F
100
AcDbEntity
  8
CENTER
100
AcDbLine
 10
110.1818389834862
 20
193.9701489503656
 30
0.0
 11
117.9367549450343
 21
193.9701489503656
 31
0.0
  0
DIMENSION
  5
20A
330
1F
100
AcDbEntity
  8
DIMENSION
100
AcDbDimension
  2
*D33
 10
185.6059307344223
 20
161.8957619009019
 30
0.0
 11
178.0380571459771
 21
161.8957619009019
 31
0.0
 70
   160
  3
ISO-25
100
AcDbAlignedDimension
 13
170.1059307344224
 23
156.3863500761125
 33
0.0
 14
185.6059307344223
 24
156.3863500761125
 34
0.0
100
AcDbRotatedDimension
  0
DIMENSION
  5
20B
330
1F
100
AcDbEntity
  8
DIMENSION
100
AcDbDimension
  2
*D34
 10
170.1059307344224
 20
145.5911064727028
 30
0.0
 11
162.6059307344223
 21
145.5911064727028
 31
0.0
 70
   160
  3
ISO-25
100
AcDbAlignedDimension
 13
179.6059307344223
 23
151.8863500761125
 33
0.0
 14
170.1059307344224
 24
153.3863500761125
 34
0.0
100
AcDbRotatedDimension
1001
ACAD
1000
DSTYLE
1002
{
1070
     7
1000

1070
   173
1070
     1
1070
     6
1000

1002
}
  0
LINE
  5
20C
330
1F
100
AcDbEntity
  8
PRO3
100
AcDbLine
 10
173.1059307344223
 20
151.8863500761125
 30
0.0
 11
179.6059307344223
 21
151.8863500761125
 31
0.0
  0
LINE
  5
20D
330
1F
100
AcDbEntity
  8
PRO3
100
AcDbLine
 10
173.1059307344223
 20
157.8863500761125
 30
0.0
 11
179.6059307344223
 21
157.8863500761125
 31
0.0
  0
DIMENSION
  5
20E
330
1F
100
AcDbEntity
  8
DIMENSION
100
AcDbDimension
  2
*D35
 10
173.1059307344223
 20
137.6108869752284
 30
0.0
 11
180.4392640677557
 21
137.6108869752284
 31
0.0
 70
   160
  3
ISO-25
100
AcDbAlignedDimension
 13
170.1059307344224
 23
153.3863500761125
 33
0.0
 14
173.1059307344223
 24
151.8863500761125
 34
0.0
100
AcDbRotatedDimension
  0
LINE
  5
20F
330
1F
100
AcDbEntity
  8
CENTER
100
AcDbLine
 10
169.1059307344223
 20
154.8863500761125
 30
0.0
 11
187.779262169969
 21
154.8863500761125
 31
0.0
  0
LINE
  5
210
330
1F
100
AcDbEntity
  8
PRO3
100
AcDbLine
 10
173.1059307344223
 20
151.8863500761125
 30
0.0
 11
173.1059307344223
 21
157.8863500761125
 31
0.0
  0
LINE
  5
211
330
1F
100
AcDbEntity
  8
PRO3
100
AcDbLine
 10
170.1059307344224
 20
153.3863500761125
 30
0.0
 11
170.1059307344224
 21
156.3863500761125
 31
0.0
  0
LINE
  5
212
330
1F
100
AcDbEntity
  8
PRO3
100
AcDbLine
 10
170.1059307344224
 20
153.3863500761125
 30
0.0
 11
173.1059307344223
 21
153.3863500761125
 31
0.0
  0
LINE
  5
213
330
1F
100
AcDbEntity
  8
PRO3
100
AcDbLine
 10
170.1059307344224
 20
156.3863500761125
 30
0.0
 11
173.1059307344223
 21
156.3863500761125
 31
0.0
  0
LINE
  5
214
330
1F
100
AcDbEntity
  8
PRO3
100
AcDbLine
 10
179.6059307344223
 20
156.3863500761125
 30
0.0
 11
185.6059307344223
 21
156.3863500761125
 31
0.0
  0
LINE
  5
215
330
1F
100
AcDbEntity
  8
PRO3
100
AcDbLine
 10
179.6059307344223
 20
153.3863500761125
 30
0.0
 11
185.6059307344223
 21
153.3863500761125
 31
0.0
  0
LINE
  5
216
330
1F
100
AcDbEntity
  8
PRO3
100
AcDbLine
 10
179.6059307344223
 20
157.8863500761125
 30
0.0
 11
179.6059307344223
 21
151.8863500761125
 31
0.0
  0
LINE
  5
217
330
1F
100
AcDbEntity
  8
PRO3
100
AcDbLine
 10
185.6059307344223
 20
156.3863500761125
 30
0.0
 11
185.6059307344223
 21
153.3863500761125
 31
0.0
  0
LINE
  5
21A
330
1F
100
AcDbEntity
  8
CENTER
100
AcDbLine
 10
147.2381739274291
 20
193.9701489503656
 30
0.0
 11
161.2502754840101
 21
193.9701489503656
 31
0.0
  0
LINE
  5
21B
330
1F
100
AcDbEntity
  8
FORM
100
AcDbLine
 10
153.988173927429
 20
195.4701489503658
 30
0.0
 11
148.2381739274289
 21
195.4701489503658
 31
0.0
  0
LINE
  5
21C
330
1F
100
AcDbEntity
  8
FORM
100
AcDbLine
 10
156.4881739274289
 20
192.4701489503658
 30
0.0
 11
148.2381739274289
 21
192.4701489503658
 31
0.0
  0
DIMENSION
  5
21D
330
1F
100
AcDbEntity
  8
DIMENSION
100
AcDbDimension
  2
*D36
 10
146.4297085598015
 20
192.4701489503658
 30
0.0
 11
144.1797085598014
 21
185.6368156170324
 31
0.0
 70
    32
  3
ISO-25
100
AcDbAlignedDimension
 13
148.2381739274289
 23
195.4701489503658
 33
0.0
 14
148.2381739274289
 24
192.4701489503658
 34
0.0
 50
90.0
100
AcDbRotatedDimension
  0
LINE
  5
21F
330
1F
100
AcDbEntity
  8
FORM
100
AcDbLine
 10
148.2381739274289
 20
195.4701489503658
 30
0.0
 11
148.2381739274289
 21
192.4701489503658
 31
0.0
  0
HATCH
  5
225
330
1F
100
AcDbEntity
  8
T
100
AcDbHatch
 10
0.0
 20
0.0
 30
0.0
210
0.0
220
0.0
230
1.0
  2
ANSI31
 70
     0
 71
     1
 91
        2
 92
        7
 72
     0
 73
     1
 93
        6
 10
164.488173927429
 20
222.9701489503656
 10
164.488173927429
 20
221.3701489503656
 10
167.4881739274291
 20
221.3701489503656
 10
167.4881739274291
 20
221.4701489503656
 10
181.9881739274291
 20
221.4701489503656
 10
181.9881739274291
 20
222.9701489503656
 97
        6
330
22C
330
242
330
24C
330
24D
330
229
330
253
 92
        7
 72
     0
 73
     1
 93
        4
 10
181.9881739274291
 20
214.9701489503658
 10
181.9881739274291
 20
216.4701489503658
 10
178.9881739274291
 20
216.4701489503658
 10
178.9881739274291
 20
214.9701489503658
 97
        4
330
252
330
251
330
250
330
253
 75
     0
 76
     1
 52
0.0
 41
0.5
 77
     0
 78
     1
 53
45.0
 43
-45.30216110604698
 44
318.7210700838073
 45
-1.122532015133643
 46
1.122532015133643
 79
     0
 47
0.0433058188804244
 98
        2
 10
172.2167520167775
 20
222.2448400461443
 10
180.4520355979604
 20
215.6623555088876
  0
HATCH
  5
226
330
1F
100
AcDbEntity
  8
T
100
AcDbHatch
 10
0.0
 20
0.0
 30
0.0
210
0.0
220
0.0
230
1.0
  2
ANSI31
 70
     0
 71
     1
 91
        1
 92
        7
 72
     1
 73
     1
 93
       14
 10
171.2644106873618
 20
215.6678115765133
 42
0.0704456998924858
 10
171.348522171291
 20
215.6688091289467
 42
0.0
 10
174.0096311008169
 20
216.0778537309366
 42
-0.1859732646798153
 10
174.2203617351491
 20
216.0317852727231
 42
0.0
 10
175.8303045407261
 20
214.9701489503658
 42
0.0
 10
176.9881739274291
 20
214.9701489503658
 42
0.0
 10
176.9881739274291
 20
216.4701489503658
 42
0.0
 10
167.4881739274291
 20
216.4701489503658
 42
0.0
 10
167.4881739274291
 20
216.5701489503657
 42
0.0
 10
164.488173927429
 20
216.5701489503657
 42
0.0
 10
164.4881739274289
 20
215.7233692999709
 42
0.0
 10
166.5107208831328
 20
214.9689431018798
 42
0.1961916350924865
 10
166.7373197355269
 20
214.9758426499976
 42
0.0
 10
168.9659825923754
 20
215.9654963851706
 42
0.0
 97
        7
330
228
330
24D
330
24B
330
242
330
227
330
22D
330
24F
 75
     0
 76
     1
 52
0.0
 41
0.5
 77
     0
 78
     1
 53
45.0
 43
-45.30216110604698
 44
318.7210700838073
 45
-1.122532015133643
 46
1.122532015133643
 79
     0
 47
0.0433058188804244
 98
        1
 10
170.0929161116193
 20
216.1387193869963
  0
LWPOLYLINE
  5
227
102
{ACAD_REACTORS
330
226
102
}
330
1F
100
AcDbEntity
  8
FORM
100
AcDbPolyline
 90
       10
 70
     0
 43
0.0
 10
164.488173927429
 20
215.7233692999709
 10
166.5107208831327
 20
214.9689431018798
 42
0.1961916350925114
 10
166.7373197355269
 20
214.9758426499975
 10
168.8891103801766
 20
215.9313607276844
 42
-0.1375325912112787
 10
169.0493964095774
 20
215.9546929033183
 10
171.2644106873618
 20
215.6678115765133
 42
0.0704456998924858
 10
171.348522171291
 20
215.6688091289467
 10
174.009631100817
 20
216.0778537309366
 42
-0.1859732646798065
 10
174.2203617351492
 20
216.0317852727231
 10
175.8303045407261
 20
214.9701489503658
  0
LINE
  5
228
102
{ACAD_REACTORS
330
226
102
}
330
1F
100
AcDbEntity
  8
FORM
100
AcDbLine
 10
176.9881739274291
 20
216.4701489503658
 30
0.0
 11
167.4881739274291
 21
216.4701489503658
 31
0.0
  0
LINE
  5
229
102
{ACAD_REACTORS
330
225
102
}
330
1F
100
AcDbEntity
  8
FORM
100
AcDbLine
 10
181.9881739274291
 20
221.4701489503656
 30
0.0
 11
167.4881739274291
 21
221.4701489503656
 31
0.0
  0
LINE
  5
22A
330
1F
100
AcDbEntity
  8
CENTER
100
AcDbLine
 10
182.9881739274291
 20
218.9701489503656
 30
0.0
 11
160.4966875451995
 21
218.9701489503656
 31
0.0
  0
DIMENSION
  5
22B
330
1F
100
AcDbEntity
  8
DIMENSION
100
AcDbDimension
  2
*D38
 10
181.9881739274291
 20
235.2802921504038
 30
0.0
 11
173.2381739274291
 21
237.768387388499
 31
0.0
 70
    32
  3
ISO-25
100
AcDbAlignedDimension
 13
164.488173927429
 23
222.9701489503656
 33
0.0
 14
181.9881739274291
 24
222.9701489503656
 34
0.0
100
AcDbRotatedDimension
  0
LINE
  5
22C
102
{ACAD_REACTORS
330
225
102
}
330
1F
100
AcDbEntity
  8
FORM
100
AcDbLine
 10
181.9881739274291
 20
222.9701489503656
 30
0.0
 11
164.488173927429
 21
222.9701489503656
 31
0.0
  0
LINE
  5
22D
102
{ACAD_REACTORS
330
226
102
}
330
1F
100
AcDbEntity
  8
FORM
100
AcDbLine
 10
169.4881739274291
 20
214.9701489503658
 30
0.0
 11
176.9881739274291
 21
214.9701489503658
 31
0.0
  0
LINE
  5
22E
330
1F
100
AcDbEntity
  8
CENTER
100
AcDbLine
 10
114.1818389834861
 20
213.9701489503658
 30
0.0
 11
114.1818389834861
 21
224.7226783230269
 31
0.0
  0
LINE
  5
22F
330
1F
100
AcDbEntity
  8
FORM
100
AcDbLine
 10
117.1818389834861
 20
208.9701489503657
 30
0.0
 11
118.1611603636671
 21
218.5639453644199
 31
0.0
  0
LINE
  5
230
330
1F
100
AcDbEntity
  8
FORM
100
AcDbLine
 10
111.1818389834862
 20
208.9701489503657
 30
0.0
 11
110.2025176033051
 21
218.5639453644199
 31
0.0
  0
LINE
  5
231
330
1F
100
AcDbEntity
  8
CENTER
100
AcDbLine
 10
110.1818389834862
 20
208.9701489503657
 30
0.0
 11
119.5175762575716
 21
208.9701489503657
 31
0.0
  0
ARC
  5
232
330
1F
100
AcDbEntity
  8
FORM
100
AcDbCircle
 10
114.1818389834861
 20
208.9701489503657
 30
0.0
 40
3.0
100
AcDbArc
 50
180.0
 51
0.0
  0
LINE
  5
233
330
1F
100
AcDbEntity
  8
CENTER
100
AcDbLine
 10
114.1818389834861
 20
210.9701489503657
 30
0.0
 11
114.1818389834861
 21
204.6056317105521
 31
0.0
  0
CIRCLE
  5
234
330
1F
100
AcDbEntity
  8
FORM
100
AcDbCircle
 10
114.1818389834861
 20
218.9701489503656
 30
0.0
 40
2.399999999999999
  0
CIRCLE
  5
235
330
1F
100
AcDbEntity
  8
FORM
100
AcDbCircle
 10
114.1818389834861
 20
218.9701489503656
 30
0.0
 40
2.5
  0
CIRCLE
  5
236
330
1F
100
AcDbEntity
  8
FORM
100
AcDbCircle
 10
114.1818389834861
 20
218.9701489503656
 30
0.0
 40
4.0
  0
LINE
  5
237
330
1F
100
AcDbEntity
  8
FORM
100
AcDbLine
 10
112.681838983486
 20
215.2620497068178
 30
0.0
 11
112.681838983486
 21
216.9701489503658
 31
0.0
  0
LINE
  5
238
330
1F
100
AcDbEntity
  8
FORM
100
AcDbLine
 10
115.681838983486
 20
215.2620497068178
 30
0.0
 11
115.681838983486
 21
216.9701489503658
 31
0.0
  0
LINE
  5
239
330
1F
100
AcDbEntity
  8
CENTER
100
AcDbLine
 10
152.9881739274289
 20
208.9701489503657
 30
0.0
 11
171.6615053629757
 21
208.9701489503657
 31
0.0
  0
LINE
  5
23A
330
1F
100
AcDbEntity
  8
FORM
100
AcDbLine
 10
164.488173927429
 20
211.9701489503658
 30
0.0
 11
153.988173927429
 21
211.9701489503658
 31
0.0
  0
LINE
  5
23C
330
1F
100
AcDbEntity
  8
FORM
100
AcDbLine
 10
165.9881739274291
 20
205.9701489503658
 30
0.0
 11
156.4881739274289
 21
205.9701489503658
 31
0.0
  0
LINE
  5
241
330
1F
100
AcDbEntity
  8
FORM
100
AcDbLine
 10
169.4881739274291
 20
215.3701489503656
 30
0.0
 11
169.4881739274291
 21
205.9701489503658
 31
0.0
  0
LINE
  5
242
102
{ACAD_REACTORS
330
225
330
226
102
}
330
1F
100
AcDbEntity
  8
FORM
100
AcDbLine
 10
164.488173927429
 20
222.9701489503656
 30
0.0
 11
164.488173927429
 21
209.7201489503658
 31
0.0
  0
LINE
  5
245
330
1F
100
AcDbEntity
  8
FORM
100
AcDbLine
 10
169.4881739274291
 20
205.9701489503658
 30
0.0
 11
167.9881739274291
 21
205.9701489503658
 31
0.0
  0
LINE
  5
247
330
1F
100
AcDbEntity
  8
FORM
100
AcDbLine
 10
165.9881739274291
 20
206.9701489503657
 30
0.0
 11
165.9881739274291
 21
205.9701489503658
 31
0.0
  0
LINE
  5
248
330
1F
100
AcDbEntity
  8
FORM
100
AcDbLine
 10
167.9881739274291
 20
206.9701489503657
 30
0.0
 11
167.9881739274291
 21
205.9701489503658
 31
0.0
  0
LINE
  5
249
330
1F
100
AcDbEntity
  8
FORM
100
AcDbLine
 10
167.9881739274291
 20
206.9701489503657
 30
0.0
 11
165.9881739274291
 21
206.9701489503657
 31
0.0
  0
LINE
  5
24B
102
{ACAD_REACTORS
330
226
102
}
330
1F
100
AcDbEntity
  8
FORM
100
AcDbLine
 10
167.4881739274291
 20
216.5701489503657
 30
0.0
 11
164.488173927429
 21
216.5701489503657
 31
0.0
  0
LINE
  5
24C
102
{ACAD_REACTORS
330
225
102
}
330
1F
100
AcDbEntity
  8
FORM
100
AcDbLine
 10
167.4881739274291
 20
221.3701489503656
 30
0.0
 11
164.488173927429
 21
221.3701489503656
 31
0.0
  0
LINE
  5
24D
102
{ACAD_REACTORS
330
225
330
226
102
}
330
1F
100
AcDbEntity
  8
FORM
100
AcDbLine
 10
167.4881739274291
 20
221.4701489503656
 30
0.0
 11
167.4881739274291
 21
216.4701489503658
 31
0.0
  0
LINE
  5
24E
330
1F
100
AcDbEntity
  8
FORM
100
AcDbLine
 10
176.9881739274291
 20
219.9701489503655
 30
0.0
 11
178.9881739274291
 21
219.9701489503655
 31
0.0
  0
LINE
  5
24F
102
{ACAD_REACTORS
330
226
102
}
330
1F
100
AcDbEntity
  8
FORM
100
AcDbLine
 10
176.9881739274291
 20
214.9701489503658
 30
0.0
 11
176.9881739274291
 21
219.9701489503655
 31
0.0
  0
LINE
  5
250
102
{ACAD_REACTORS
330
225
102
}
330
1F
100
AcDbEntity
  8
FORM
100
AcDbLine
 10
178.9881739274291
 20
214.9701489503658
 30
0.0
 11
181.9881739274291
 21
214.9701489503658
 31
0.0
  0
LINE
  5
251
102
{ACAD_REACTORS
330
225
102
}
330
1F
100
AcDbEntity
  8
FORM
100
AcDbLine
 10
178.9881739274291
 20
214.9701489503658
 30
0.0
 11
178.9881739274291
 21
219.9701489503655
 31
0.0
  0
LINE
  5
252
102
{ACAD_REACTORS
330
225
102
}
330
1F
100
AcDbEntity
  8
FORM
100
AcDbLine
 10
181.9881739274291
 20
216.4701489503658
 30
0.0
 11
178.9881739274291
 21
216.4701489503658
 31
0.0
  0
LINE
  5
253
102
{ACAD_REACTORS
330
225
102
}
330
1F
100
AcDbEntity
  8
FORM
100
AcDbLine
 10
181.9881739274291
 20
214.9701489503658
 30
0.0
 11
181.9881739274291
 21
222.9701489503656
 31
0.0
  0
DIMENSION
  5
254
330
1F
100
AcDbEntity
  8
DIMENSION
100
AcDbDimension
  2
*D39
 10
200.5193173227372
 20
222.9701489503656
 30
0.0
 11
200.5193173227372
 21
215.3040825802684
 31
0.0
 70
   160
  3
ISO-25
100
AcDbAlignedDimension
 13
169.4881739274291
 23
205.9701489503658
 33
0.0
 14
181.9881739274291
 24
222.9701489503656
 34
0.0
 50
90.0
100
AcDbRotatedDimension
  0
DIMENSION
  5
255
330
1F
100
AcDbEntity
  8
DIMENSION
100
AcDbDimension
  2
*D40
 10
192.949517044966
 20
214.9701489503658
 30
0.0
 11
192.9495170449659
 21
218.5203493616129
 31
0.0
 70
   160
  3
ISO-25
100
AcDbAlignedDimension
 13
181.9881739274291
 23
222.9701489503656
 33
0.0
 14
181.9881739274291
 24
214.9701489503658
 34
0.0
 50
90.0
100
AcDbRotatedDimension
  0
DIMENSION
  5
256
330
1F
100
AcDbEntity
  8
DIMENSION
100
AcDbDimension
  2
*D41
 10
156.4881739274289
 20
237.4395657224631
 30
0.0
 11
151.3156150282795
 21
237.4395657224631
 31
0.0
 70
   160
  3
ISO-25
100
AcDbAlignedDimension
 13
148.2381739274289
 23
192.4701489503658
 33
0.0
 14
156.4881739274289
 24
192.4701489503658
 34
0.0
100
AcDbRotatedDimension
  0
DIMENSION
  5
576
330
1F
100
AcDbEntity
  8
DIMENSION
100
AcDbDimension
  2
*D42
 10
102.8519469852106
 20
160.4583981546205
 30
0.0
 11
100.3638517471154
 21
170.2083981546206
 31
0.0
 70
    32
  3
ISO-25
100
AcDbAlignedDimension
 13
92.51639948094179
 23
179.9583981546206
 33
0.0
 14
92.51639948094179
 24
160.4583981546205
 34
0.0
 50
90.0
100
AcDbRotatedDimension
  0
DIMENSION
  5
58D
330
1F
100
AcDbEntity
  8
DIMENSION
100
AcDbDimension
  2
*D44
 10
92.51639948094185
 20
161.9583981546206
 30
0.0
 11
85.83063632243295
 21
152.7177656108394
 31
0.0
 70
    36
  3
ISO-25
100
AcDbRadialDimension
 15
91.92341181085794
 25
160.5805862577607
 35
0.0
 40
0.0
1001
ACAD
1000
DSTYLE
1002
{
1070
   288
1070
     1
1002
}
  0
DIMENSION
  5
5A1
330
1F
100
AcDbEntity
  8
DIMENSION
100
AcDbDimension
  2
*D46
 10
70.08871511156616
 20
164.1753310999131
 30
0.0
 11
64.81488979404923
 21
154.1708548868327
 31
0.0
 70
    36
  3
ISO-25
100
AcDbRadialDimension
 15
69.24569606817621
 25
161.2962133717747
 35
0.0
 40
0.0
1001
ACAD
1000
DSTYLE
1002
{
1070
   288
1070
     1
1002
}
  0
CIRCLE
  5
5B7
330
1F
100
AcDbEntity
  8
0
100
AcDbCircle
 10
70.08871511156624
 20
174.1753310999129
 30
0.0
 40
2.5
  0
DIMENSION
  5
5B8
330
1F
100
AcDbEntity
  8
DIMENSION
100
AcDbDimension
  2
*D48
 10
72.47440737624083
 20
174.922641221798
 30
0.0
 11
59.43030980830322
 21
173.194427485087
 31
0.0
 70
    35
  3
ISO-25
100
AcDbDiametricDimension
 15
67.70302284689165
 25
173.4280209780279
 35
0.0
 40
0.0
1001
ACAD
1000
DSTYLE
1002
{
1070
   288
1070
     1
1002
}
  0
LINE
  5
5C4
330
1F
100
AcDbEntity
  8
CENTER
100
AcDbLine
 10
70.08871511156624
 20
170.175331099913
 30
0.0
 11
70.08871511156624
 21
180.0555610468705
 31
0.0
  0
LINE
  5
5C5
330
1F
100
AcDbEntity
  8
CENTER
100
AcDbLine
 10
70.08871511156624
 20
174.175331099913
 30
0.0
 11
75.09437955924659
 21
174.175331099913
 31
0.0
  0
LINE
  5
5C6
330
1F
100
AcDbEntity
  8
CENTER
100
AcDbLine
 10
70.08871511156624
 20
174.175331099913
 30
0.0
 11
65.0830506638859
 21
174.175331099913
 31
0.0
  0
LINE
  5
5C7
330
1F
100
AcDbEntity
  8
CENTER
100
AcDbLine
 10
70.08871511156602
 20
160.6753310999132
 30
0.0
 11
70.08871511156602
 21
167.5555610468708
 31
0.0
  0
LINE
  5
5C9
330
1F
100
AcDbEntity
  8
CENTER
100
AcDbLine
 10
66.08871511156602
 20
164.1753310999132
 30
0.0
 11
74.09437955924636
 21
164.1753310999132
 31
0.0
  0
LEADER
  5
5CA
330
1F
100
AcDbEntity
  8
DIMENSION
100
AcDbLeader
  3
ISO-25
 71
     0
 73
     0
 74
     0
 75
     1
 40
2.5
 41
3.571428571428572
 76
     3
 10
71.47708612166013
 20
168.6647947359554
 30
0.0
 10
77.15428831430961
 20
161.8838140601267
 30
0.0
 10
79.65428831430961
 20
161.8838140601267
 30
0.0
340
5CB
213
0.0
223
-1.25
233
0.0
1001
ACAD
1000
DSTYLE
1002
{
1070
     5
1000

1070
    77
1070
     1
1070
   147
1040
0.0
1002
}
  0
MTEXT
  5
5CB
102
{ACAD_REACTORS
330
5CA
102
}
330
1F
100
AcDbEntity
  8
DIMENSION
 62
     5
100
AcDbMText
 10
79.65428831430961
 20
165.6338140601267
 30
0.0
 40
2.5
 41
0.0
 71
     1
 72
     1
  1
s6
1001
ACAD
1000
MTEXTBEGIN
1070
    73
1070
     1
1070
    44
1040
1.0
1070
    74
1070
     0
1000
MTEXTEND
  0
LINE
  5
6E4
330
1F
100
AcDbEntity
  8
CENTER
100
AcDbLine
 10
92.51639948094165
 20
173.9583981546206
 30
0.0
 11
92.51639948094165
 21
180.9123985729811
 31
0.0
  0
LINE
  5
6E6
330
1F
100
AcDbEntity
  8
CENTER
100
AcDbLine
 10
88.51639948094165
 20
176.9583981546206
 30
0.0
 11
96.21384185493543
 21
176.9583981546206
 31
0.0
  0
LINE
  5
6E7
330
1F
100
AcDbEntity
  8
CENTER
100
AcDbLine
 10
88.51639948094172
 20
161.9583981546206
 30
0.0
 11
96.21384185493548
 21
161.9583981546206
 31
0.0
  0
LINE
  5
6E8
330
1F
100
AcDbEntity
  8
CENTER
100
AcDbLine
 10
92.51639948094171
 20
158.9583981546206
 30
0.0
 11
92.51639948094171
 21
165.9123985729811
 31
0.0
  0
DIMENSION
  5
6E9
330
1F
100
AcDbEntity
  8
DIMENSION
100
AcDbDimension
  2
*D50
 10
93.74178692679754
 20
177.8235141049643
 30
0.0
 11
83.4871142899078
 21
173.3380096367117
 31
0.0
 70
    35
  3
ISO-25
100
AcDbDiametricDimension
 15
91.29101203508605
 25
176.0932822042769
 35
0.0
 40
0.0
1001
ACAD
1000
DSTYLE
1002
{
1070
   288
1070
     1
1002
}
  0
DIMENSION
  5
6F5
330
1F
100
AcDbEntity
  8
DIMENSION
100
AcDbDimension
  2
*D51
 10
91.83049289009691
 20
162.6860877509702
 30
0.0
 11
100.3023637263737
 21
156.9784705310298
 31
0.0
 70
    35
  3
ISO-25
100
AcDbDiametricDimension
 15
93.20230607178668
 25
161.2307085582708
 35
0.0
 40
0.0
1001
ACAD
1000
DSTYLE
1002
{
1070
   288
1070
     1
1002
}
  0
DIMENSION
  5
798
330
1F
100
AcDbEntity
  8
DIMENSION
100
AcDbDimension
  2
*D52
 10
66.10939373138524
 20
173.7691275139673
 30
0.0
 11
70.08871511156605
 21
195.8365111006274
 31
0.0
 70
    34
  3
ISO-25
100
AcDb2LineAngularDimension
 13
73.08871511156624
 23
164.1753310999132
 33
0.0
 14
74.06803649174711
 24
173.7691275139673
 34
0.0
 15
67.08871511156624
 25
164.1753310999132
 35
0.0
 16
72.08217763741354
 26
193.5527099494612
 36
0.0
1001
ACAD
1000
DSTYLE
1002
{
1070
   271
1070
     0
1002
}
  0
DIMENSION
  5
7A7
330
1F
100
AcDbEntity
  8
DIMENSION
100
AcDbDimension
  2
*D53
 10
89.53159023288339
 20
176.6568790794264
 30
0.0
 11
92.51639948094153
 21
188.7588119547698
 31
0.0
 70
    34
  3
ISO-25
100
AcDb2LineAngularDimension
 13
94.0163994809418
 23
161.9583981546205
 33
0.0
 14
95.50120872899986
 24
176.6568790794264
 34
0.0
 15
91.01639948094179
 25
161.9583981546205
 35
0.0
 16
93.83834285567452
 26
186.4866284686039
 36
0.0
1001
ACAD
1000
DSTYLE
1002
{
1070
   271
1070
     0
1002
}
  0
DIMENSION
  5
7B8
330
1F
100
AcDbEntity
  8
DIMENSION
100
AcDbDimension
  2
*D54
 10
54.46486481457412
 20
161.1753310999133
 30
0.0
 11
52.2148648145741
 21
169.6753310999131
 31
0.0
 70
    32
  3
ISO-25
100
AcDbAlignedDimension
 13
70.08871511156624
 23
178.175331099913
 33
0.0
 14
70.08871511156624
 24
161.1753310999132
 34
0.0
 50
90.0
100
AcDbRotatedDimension
  0
DIMENSION
  5
7C5
330
1F
100
AcDbEntity
  8
DIMENSION
100
AcDbDimension
  2
*D55
 10
70.08871511156629
 20
174.175331099913
 30
0.0
 11
70.50774835131313
 21
186.5177737566898
 31
0.0
 70
    36
  3
ISO-25
100
AcDbRadialDimension
 15
70.95051926779222
 25
178.0813896755506
 35
0.0
 40
0.0
1001
ACAD
1000
DSTYLE
1002
{
1070
   288
1070
     1
1002
}
  0
DIMENSION
  5
7CF
330
1F
100
AcDbEntity
  8
DIMENSION
100
AcDbDimension
  2
*D56
 10
92.51639948094194
 20
176.9583981546205
 30
0.0
 11
79.99699787230206
 21
181.7935847586532
 31
0.0
 70
   164
  3
ISO-25
100
AcDbRadialDimension
 15
89.71786570659482
 25
178.0392351977678
 35
0.0
 40
0.0
1001
ACAD
1000
DSTYLE
1002
{
1070
   288
1070
     1
1002
}
  0
LINE
  5
7E3
102
{ACAD_REACTORS
330
7FD
102
}
330
1F
100
AcDbEntity
  8
0
100
AcDbLine
 10
180.580188688904
 20
171.1348876529502
 30
0.0
 11
193.0801886889041
 21
171.1348876529503
 31
0.0
  0
LINE
  5
7E4
102
{ACAD_REACTORS
330
7FD
102
}
330
1F
100
AcDbEntity
  8
0
100
AcDbLine
 10
193.0801886889041
 20
171.1348876529502
 30
0.0
 11
193.0801886889041
 21
179.13488765295
 31
0.0
  0
LINE
  5
7E5
330
1F
100
AcDbEntity
  8
CENTER
100
AcDbLine
 10
194.0801886889041
 20
175.13488765295
 30
0.0
 11
179.580188688904
 21
175.13488765295
 31
0.0
  0
LINE
  5
7E6
102
{ACAD_REACTORS
330
7FD
102
}
330
1F
100
AcDbEntity
  8
0
100
AcDbLine
 10
193.0801886889041
 20
179.13488765295
 30
0.0
 11
180.580188688904
 21
179.13488765295
 31
0.0
  0
LINE
  5
7E7
102
{ACAD_REACTORS
330
7FD
102
}
330
1F
100
AcDbEntity
  8
0
100
AcDbLine
 10
193.0801886889041
 20
177.63488765295
 30
0.0
 11
180.580188688904
 21
177.63488765295
 31
0.0
  0
LINE
  5
7E8
102
{ACAD_REACTORS
330
7FD
102
}
330
1F
100
AcDbEntity
  8
0
100
AcDbLine
 10
193.0801886889041
 20
172.6348876529502
 30
0.0
 11
180.580188688904
 21
172.6348876529502
 31
0.0
  0
LINE
  5
7E9
102
{ACAD_REACTORS
330
7FD
102
}
330
1F
100
AcDbEntity
  8
0
100
AcDbLine
 10
180.580188688904
 20
171.1348876529502
 30
0.0
 11
180.580188688904
 21
179.13488765295
 31
0.0
  0
HATCH
  5
7FD
330
1F
100
AcDbEntity
  8
T
100
AcDbHatch
 10
0.0
 20
0.0
 30
0.0
210
0.0
220
0.0
230
1.0
  2
ANSI31
 70
     0
 71
     1
 91
        2
 92
        7
 72
     0
 73
     1
 93
        4
 10
193.0801886889041
 20
179.13488765295
 10
180.580188688904
 20
179.13488765295
 10
180.580188688904
 20
177.63488765295
 10
193.0801886889041
 20
177.63488765295
 97
        4
330
7E6
330
7E9
330
7E7
330
7E4
 92
        7
 72
     0
 73
     1
 93
        4
 10
193.0801886889041
 20
172.6348876529503
 10
180.580188688904
 20
172.6348876529502
 10
180.580188688904
 20
171.1348876529502
 10
193.0801886889041
 20
171.1348876529503
 97
        4
330
7E8
330
7E9
330
7E3
330
7E4
 75
     0
 76
     1
 52
0.0
 41
1.0
 77
     0
 78
     1
 53
45.0
 43
0.0
 44
0.0
 45
-2.245064030267287
 46
2.245064030267288
 79
     0
 47
0.0645928549341606
 98
        2
 10
187.0067643842967
 20
178.2999375415774
 10
186.6837099901514
 20
171.9052448724176
  0
DIMENSION
  5
7FE
330
1F
100
AcDbEntity
  8
DIMENSION
100
AcDbDimension
  2
*D57
 10
193.0801886889041
 20
184.1152286675726
 30
0.0
 11
186.8301886889041
 21
186.6033239056679
 31
0.0
 70
    32
  3
ISO-25
100
AcDbAlignedDimension
 13
180.580188688904
 23
179.13488765295
 33
0.0
 14
193.0801886889041
 24
179.13488765295
 34
0.0
100
AcDbRotatedDimension
  0
DIMENSION
  5
80B
330
1F
100
AcDbEntity
  8
DIMENSION
100
AcDbDimension
  2
*D58
 10
200.7709332127595
 20
171.1348876529503
 30
0.0
 11
198.5209332127595
 21
175.1348876529502
 31
0.0
 70
    32
  1
%%c<>
  3
ISO-25
100
AcDbAlignedDimension
 13
193.0801886889041
 23
179.13488765295
 33
0.0
 14
193.0801886889041
 24
171.1348876529503
 34
0.0
 50
90.0
100
AcDbRotatedDimension
  0
DIMENSION
  5
975
330
1F
100
AcDbEntity
  8
DIMENSION
100
AcDbDimension
  2
*D60
 10
176.2834034348737
 20
177.63488765295
 30
0.0
 11
176.2834034348737
 21
185.5991733672357
 31
0.0
 70
   160
  1
%%c<>
  3
ISO-25
100
AcDbAlignedDimension
 13
180.580188688904
 23
172.6348876529502
 33
0.0
 14
180.580188688904
 24
177.63488765295
 34
0.0
 50
90.0
100
AcDbRotatedDimension
  0
ENDSEC
  0
SECTION
  2
OBJECTS
  0
DICTIONARY
  5
C
330
0
100
AcDbDictionary
  3
ACAD_GROUP
350
D
  3
ACAD_PLOTSTYLENAME
350
E
  3
ACAD_MLINESTYLE
350
17
  3
ACAD_PLOTSETTINGS
350
19
  3
ACAD_LAYOUT
350
1A
  3
ACDBVARIABLEDICTIONARY
350
7EA
  3
ACDBHEADERROUNDTRIPXREC
350
9DA
  0
DICTIONARY
  5
9FD
330
1F
100
AcDbDictionary
280
     1
  3
ACAD_LAYOUTSELFREF
360
9FE
  0
DICTIONARY
  5
9FB
330
1B
100
AcDbDictionary
280
     1
  3
ACAD_LAYOUTSELFREF
360
9FC
  0
DICTIONARY
  5
D
102
{ACAD_REACTORS
330
C
102
}
330
C
100
AcDbDictionary
  0
ACDBDICTIONARYWDFLT
  5
E
102
{ACAD_REACTORS
330
C
102
}
330
C
100
AcDbDictionary
281
     1
  3
Normal
350
F
100
AcDbDictionaryWithDefault
340
F
  0
DICTIONARY
  5
17
102
{ACAD_REACTORS
330
C
102
}
330
C
100
AcDbDictionary
  3
STANDARD
350
18
  0
DICTIONARY
  5
19
102
{ACAD_REACTORS
330
C
102
}
330
C
100
AcDbDictionary
  0
DICTIONARY
  5
1A
102
{ACAD_REACTORS
330
C
102
}
330
C
100
AcDbDictionary
  0
DICTIONARY
  5
7EA
102
{ACAD_REACTORS
330
C
102
}
330
C
100
AcDbDictionary
  3
SORTENTS
350
7EB
  0
DICTIONARY
  5
9DA
102
{ACAD_REACTORS
330
C
102
}
330
C
100
AcDbDictionary
  3
TSTACKALIGN
350
9DB
  3
TSTACKSIZE
350
9DC
  3
HYPERLINKBASE
350
9DD
  3
STYLESHEET
350
9DE
  3
LAYOUTDICT
350
9DF
  3
PLOTSETDICT
350
9E0
  3
PLOTSTYLNAMDICT
350
9E1
  3
LWETCUNION
350
9E2
  3
INSUNITS
350
9E3
  3
CEPSNTYPE
350
9E4
  3
FINGERPRINTGUID
350
9E5
  3
VERSIONGUID
350
9E6
  3
PSVPSCALE
350
9E7
  3
DIMSTYLEDATA
350
9E8
  3
PUCSORTHOREF
350
9E9
  3
PUCSORTHOVIEW
350
9EA
  3
PUCSBASE
350
9EB
  3
PUCSORGTOP
350
9EC
  3
PUCSORGBOTTOM
350
9ED
  3
PUCSORGLEFT
350
9EE
  3
PUCSORGRIGHT
350
9EF
  3
PUCSORGFRONT
350
9F0
  3
PUCSORGBACK
350
9F1
  3
UCSORTHOREF
350
9F2
  3
UCSORTHOVIEW
350
9F3
  3
UCSBASE
350
9F4
  3
UCSORGTOP
350
9F5
  3
UCSORGBOTTOM
350
9F6
  3
UCSORGLEFT
350
9F7
  3
UCSORGRIGHT
350
9F8
  3
UCSORGFRONT
350
9F9
  3
UCSORGBACK
350
9FA
  0
XRECORD
  5
9FE
102
{ACAD_REACTORS
330
9FD
102
}
330
9FD
100
AcDbXrecord
340
1F
  0
XRECORD
  5
9FC
102
{ACAD_REACTORS
330
9FB
102
}
330
9FB
100
AcDbXrecord
340
1B
  0
ACDBPLACEHOLDER
  5
F
102
{ACAD_REACTORS
330
E
102
}
330
E
100
AcDbPlaceHolder
280
     0
  0
MLINESTYLE
  5
18
102
{ACAD_REACTORS
330
17
102
}
330
17
100
AcDbMlineStyle
  2
STANDARD
 70
     0
  3

 62
   256
 51
90.0
 52
90.0
 71
     2
 49
0.5
 62
   256
  6
BYLAYER
 49
-0.5
 62
   256
  6
BYLAYER
  0
DICTIONARYVAR
  5
7EB
102
{ACAD_REACTORS
330
7EA
102
}
330
7EA
100
DictionaryVariables
280
     0
  1
96
  0
XRECORD
  5
9DB
102
{ACAD_REACTORS
330
9DA
102
}
330
9DA
100
AcDbXrecord
 90
        1
  0
XRECORD
  5
9DC
102
{ACAD_REACTORS
330
9DA
102
}
330
9DA
100
AcDbXrecord
 90
       70
  0
XRECORD
  5
9DD
102
{ACAD_REACTORS
330
9DA
102
}
330
9DA
100
AcDbXrecord
  1

  0
XRECORD
  5
9DE
102
{ACAD_REACTORS
330
9DA
102
}
330
9DA
100
AcDbXrecord
  1

  0
XRECORD
  5
9DF
102
{ACAD_REACTORS
330
9DA
102
}
330
9DA
100
AcDbXrecord
340
1A
  0
XRECORD
  5
9E0
102
{ACAD_REACTORS
330
9DA
102
}
330
9DA
100
AcDbXrecord
340
19
  0
XRECORD
  5
9E1
102
{ACAD_REACTORS
330
9DA
102
}
330
9DA
100
AcDbXrecord
340
E
  0
XRECORD
  5
9E2
102
{ACAD_REACTORS
330
9DA
102
}
330
9DA
100
AcDbXrecord
 90
    10781
  0
XRECORD
  5
9E3
102
{ACAD_REACTORS
330
9DA
102
}
330
9DA
100
AcDbXrecord
 90
        4
  0
XRECORD
  5
9E4
102
{ACAD_REACTORS
330
9DA
102
}
330
9DA
100
AcDbXrecord
 90
        0
  0
XRECORD
  5
9E5
102
{ACAD_REACTORS
330
9DA
102
}
330
9DA
100
AcDbXrecord
  1
{A6800505-E5D3-4931-B1E1-0767A474B8A8}
  0
XRECORD
  5
9E6
102
{ACAD_REACTORS
330
9DA
102
}
330
9DA
100
AcDbXrecord
  1
{94DBBF67-7E8D-440B-9525-875DB3452A5D}
  0
XRECORD
  5
9E7
102
{ACAD_REACTORS
330
9DA
102
}
330
9DA
100
AcDbXrecord
 40
0.0
  0
XRECORD
  5
9E8
102
{ACAD_REACTORS
330
9DA
102
}
330
9DA
100
AcDbXrecord
1000
DSTYLE
1002
{
1070
   278
 70
    44
1002
}
  0
XRECORD
  5
9E9
102
{ACAD_REACTORS
330
9DA
102
}
330
9DA
100
AcDbXrecord
340
0
  0
XRECORD
  5
9EA
102
{ACAD_REACTORS
330
9DA
102
}
330
9DA
100
AcDbXrecord
 70
     0
  0
XRECORD
  5
9EB
102
{ACAD_REACTORS
330
9DA
102
}
330
9DA
100
AcDbXrecord
340
0
  0
XRECORD
  5
9EC
102
{ACAD_REACTORS
330
9DA
102
}
330
9DA
100
AcDbXrecord
 10
0.0
 20
0.0
 30
0.0
  0
XRECORD
  5
9ED
102
{ACAD_REACTORS
330
9DA
102
}
330
9DA
100
AcDbXrecord
 10
0.0
 20
0.0
 30
0.0
  0
XRECORD
  5
9EE
102
{ACAD_REACTORS
330
9DA
102
}
330
9DA
100
AcDbXrecord
 10
0.0
 20
0.0
 30
0.0
  0
XRECORD
  5
9EF
102
{ACAD_REACTORS
330
9DA
102
}
330
9DA
100
AcDbXrecord
 10
0.0
 20
0.0
 30
0.0
  0
XRECORD
  5
9F0
102
{ACAD_REACTORS
330
9DA
102
}
330
9DA
100
AcDbXrecord
 10
0.0
 20
0.0
 30
0.0
  0
XRECORD
  5
9F1
102
{ACAD_REACTORS
330
9DA
102
}
330
9DA
100
AcDbXrecord
 10
0.0
 20
0.0
 30
0.0
  0
XRECORD
  5
9F2
102
{ACAD_REACTORS
330
9DA
102
}
330
9DA
100
AcDbXrecord
340
0
  0
XRECORD
  5
9F3
102
{ACAD_REACTORS
330
9DA
102
}
330
9DA
100
AcDbXrecord
 70
     0
  0
XRECORD
  5
9F4
102
{ACAD_REACTORS
330
9DA
102
}
330
9DA
100
AcDbXrecord
340
0
  0
XRECORD
  5
9F5
102
{ACAD_REACTORS
330
9DA
102
}
330
9DA
100
AcDbXrecord
 10
0.0
 20
0.0
 30
0.0
  0
XRECORD
  5
9F6
102
{ACAD_REACTORS
330
9DA
102
}
330
9DA
100
AcDbXrecord
 10
0.0
 20
0.0
 30
0.0
  0
XRECORD
  5
9F7
102
{ACAD_REACTORS
330
9DA
102
}
330
9DA
100
AcDbXrecord
 10
0.0
 20
0.0
 30
0.0
  0
XRECORD
  5
9F8
102
{ACAD_REACTORS
330
9DA
102
}
330
9DA
100
AcDbXrecord
 10
0.0
 20
0.0
 30
0.0
  0
XRECORD
  5
9F9
102
{ACAD_REACTORS
330
9DA
102
}
330
9DA
100
AcDbXrecord
 10
0.0
 20
0.0
 30
0.0
  0
XRECORD
  5
9FA
102
{ACAD_REACTORS
330
9DA
102
}
330
9DA
100
AcDbXrecord
 10
0.0
 20
0.0
 30
0.0
  0
ENDSEC
  0
EOF
